<?xml version="1.0" standalone="no"?>
<!DOCTYPE svg PUBLIC "-//W3C//DTD SVG 1.1//EN" "http://www.w3.org/Graphics/SVG/1.1/DTD/svg11.dtd" >
<svg xmlns="http://www.w3.org/2000/svg" xmlns:xlink="http://www.w3.org/1999/xlink" version="1.1">
<metadata>
Created by FontForge 20161003 at Thu Jul 18 10:15:23 2019
 By www-data
(c) Ray Larabie 2006. Do not distribute. Report piracy to piracy@typodermic.com. Visit www.typodermic.com and www.larabiefonts.com
</metadata>
<defs>
<font id="MilibusBold" horiz-adv-x="699" >
  <font-face 
    font-family="MilibusBold"
    font-weight="700"
    font-stretch="normal"
    units-per-em="1000"
    panose-1="2 0 5 3 4 0 0 2 0 4"
    ascent="788"
    descent="-212"
    x-height="546"
    cap-height="739"
    bbox="-175 -219 1038 969"
    underline-thickness="50"
    underline-position="-150"
    unicode-range="U+0020-2212"
  />
<missing-glyph horiz-adv-x="533" 
d="M533 739v-739h-533v739h533zM82 74h372v595h-372v-595z" />
    <glyph glyph-name=".notdef" horiz-adv-x="533" 
d="M533 739v-739h-533v739h533zM82 74h372v595h-372v-595z" />
    <glyph glyph-name=".null" horiz-adv-x="0" 
 />
    <glyph glyph-name="nonmarkingreturn" horiz-adv-x="0" 
 />
    <glyph glyph-name="space" unicode=" " horiz-adv-x="354" 
 />
    <glyph glyph-name="exclam" unicode="!" horiz-adv-x="334" 
d="M254 752l-21 -501h-133l-20 501h174zM238 154v-154h-141v154h141z" />
    <glyph glyph-name="quotedbl" unicode="&#x22;" horiz-adv-x="366" 
d="M339 756l-21 -310h-88l-22 310h131zM159 756l-22 -310h-87l-23 310h132z" />
    <glyph glyph-name="numbersign" unicode="#" horiz-adv-x="591" 
d="M298 739l-30 -193h117l26 193h106l-27 -193h71v-96h-86l-22 -164h83v-96h-95l-27 -190h-106l28 190h-117l-26 -190h-104l27 190h-86v96h97l23 164h-95v96h108l29 193h106zM233 286h115l24 164h-116z" />
    <glyph glyph-name="dollar" unicode="$" horiz-adv-x="572" 
d="M340 739v-89q81 -10 117.5 -51t37.5 -120h-111q0 46 -26 63.5t-65 17.5q-90 0 -90 -51q0 -17 5.5 -28t14.5 -17.5t19.5 -10.5t21.5 -7l88 -27q30 -9 58.5 -21.5t50 -31t35 -44.5t13.5 -63q0 -64 -40 -110.5t-129 -59.5v-89h-98v87q-88 8 -130.5 52t-48.5 126h118
q4 -42 28.5 -64.5t72.5 -22.5q58 0 82.5 21.5t24.5 49.5q0 20 -6 32.5t-16 21t-24 13.5t-30 10l-80 24q-31 9 -58 22.5t-47.5 32.5t-32 44t-11.5 57q0 63 41.5 98.5t116.5 44.5v90h98z" />
    <glyph glyph-name="percent" unicode="%" horiz-adv-x="923" 
d="M63 579q0 167 164 167q167 0 167 -167v-60q0 -167 -165 -167q-166 0 -166 167v60zM164 515q0 -76 65 -76t65 76v69q0 75 -67 75q-63 0 -63 -75v-69zM529 218q0 167 164 167q167 0 167 -167v-60q0 -167 -165 -167q-166 0 -166 167v60zM629 154q0 -76 66 -76q64 0 64 76v69
q0 75 -66 75q-64 0 -64 -75v-69zM780 739l-517 -739h-120l515 739h122z" />
    <glyph glyph-name="ampersand" unicode="&#x26;" horiz-adv-x="734" 
d="M146 609q0 66 41 105t126 39q79 0 121 -33.5t42 -90.5v-53q0 -38 -31 -77.5t-77 -68.5l146 -198q35 48 47.5 84.5t14.5 65.5l120 -34q-5 -47 -29 -107t-71 -114l104 -127h-164l-31 46q-48 -32 -99 -45t-117 -13q-60 0 -103.5 15.5t-72 41.5t-42 60t-13.5 72v50
q0 57 25 106t71 84l43 33q-23 28 -37 56.5t-14 60.5v42zM248 338q-26 -20 -38 -49.5t-12 -58.5v-44q0 -42 26.5 -63.5t61.5 -21.5q48 0 82.5 11t65.5 34l-161 212zM265 573q0 -16 8 -36.5t23 -37.5q27 17 45.5 34.5t18.5 35.5v41q0 20 -12 32t-32 12q-22 0 -36.5 -11.5
t-14.5 -31.5v-38z" />
    <glyph glyph-name="quotesingle" unicode="'" horiz-adv-x="185" 
d="M158 756l-20 -310h-89l-22 310h131z" />
    <glyph glyph-name="parenleft" unicode="(" horiz-adv-x="364" 
d="M301 686q-65 -29 -93 -96t-28 -155v-312q0 -88 27.5 -155.5t93.5 -95.5l-46 -88q-42 17 -77.5 44.5t-61 70t-39.5 102t-14 141.5v274q0 82 14 141.5t39.5 102t61 70t77.5 44.5z" />
    <glyph glyph-name="parenright" unicode=")" horiz-adv-x="365" 
d="M110 774q42 -17 77 -44.5t60.5 -70t40 -102.5t14.5 -141v-274q0 -81 -14.5 -141t-40 -102.5t-60.5 -70t-77 -44.5l-46 88q66 28 93.5 95.5t27.5 155.5v312q0 88 -28 154.5t-94 96.5z" />
    <glyph glyph-name="asterisk" unicode="*" horiz-adv-x="582" 
d="M248 612l-24 127h136l-24 -129l120 62l36 -111l-135 -24l93 -93l-106 -78l-53 113l-60 -110l-102 76l97 90l-136 29l41 109z" />
    <glyph glyph-name="plus" unicode="+" horiz-adv-x="641" 
d="M378 586v-177h173v-93h-173v-171h-111v171h-177v93h177v177h111z" />
    <glyph glyph-name="comma" unicode="," horiz-adv-x="319" 
d="M256 168l-72 -271l-119 17l31 254h160z" />
    <glyph glyph-name="hyphen" unicode="-" horiz-adv-x="415" 
d="M360 336v-89h-305v89h305z" />
    <glyph glyph-name="period" unicode="." horiz-adv-x="317" 
d="M237 168v-168h-157v168h157z" />
    <glyph glyph-name="slash" unicode="/" horiz-adv-x="491" 
d="M472 739l-351 -815h-114l352 815h113z" />
    <glyph glyph-name="zero" unicode="0" horiz-adv-x="661" 
d="M75 506q0 247 256 247q255 0 255 -247v-272q0 -247 -255 -247q-256 0 -256 247v272zM221 225q0 -116 110 -116q109 0 109 116v290q0 115 -109 115q-110 0 -110 -115v-290z" />
    <glyph glyph-name="one" unicode="1" horiz-adv-x="407" 
d="M235 739h92v-739h-146v473q0 45 0.5 70.5t2.5 38.5q-22 -14 -47 -28t-50 -26l-66 103z" />
    <glyph glyph-name="two" unicode="2" horiz-adv-x="618" 
d="M74 518q2 53 14.5 96.5t40 74t71.5 47.5t110 17q232 0 232 -214q0 -42 -16.5 -80.5t-44 -73t-63 -64.5t-72.5 -54q-23 -15 -44.5 -31.5t-38.5 -35t-27.5 -38.5t-11.5 -42q14 2 38.5 2.5t57.5 0.5h226v-123h-468v84q0 54 15.5 97.5t41 78t58.5 61t68 47.5q28 16 52.5 34.5
t43 39.5t29 44.5t10.5 50.5q0 49 -20.5 71t-71.5 22t-75 -24.5t-25 -87.5h-130z" />
    <glyph glyph-name="three" unicode="3" horiz-adv-x="624" 
d="M71 529q1 54 13.5 95.5t39.5 70t70.5 43.5t106.5 15q119 0 172 -50t53 -141q0 -66 -26 -107t-61 -55q51 -15 82 -58.5t31 -133.5q0 -114 -67.5 -167.5t-185.5 -53.5q-126 0 -180.5 57.5t-56.5 165.5h133q1 -31 7.5 -50.5t19.5 -31t31.5 -15.5t43.5 -4q54 0 81.5 24.5
t27.5 78.5q0 63 -25.5 90.5t-67.5 27.5h-99v106h95q18 0 31.5 8.5t22 22.5t13 32.5t4.5 39.5q0 46 -16 68.5t-65 22.5q-25 0 -42.5 -4t-28.5 -15.5t-16.5 -31t-6.5 -50.5h-134z" />
    <glyph glyph-name="four" unicode="4" horiz-adv-x="568" 
d="M482 739v-499h56v-123h-56v-117h-141v117h-301v96l318 526h124zM343 524q-12 -23 -24 -46.5t-25 -44.5l-76 -128q-15 -25 -24.5 -39.5t-19.5 -28.5l1 -2q17 2 34 3.5t40 1.5h92v180q0 27 2 53.5t4 49.5z" />
    <glyph glyph-name="five" unicode="5" horiz-adv-x="639" 
d="M545 739v-123h-308l-7 -81q-3 -34 -4.5 -52t-5.5 -28l2 -2q18 11 55 20.5t88 9.5q42 0 79.5 -10t65 -34.5t44 -66t16.5 -104.5v-56q0 -117 -67 -171t-185 -54q-128 0 -186 59.5t-60 163.5h123q1 -54 35.5 -77.5t85.5 -23.5q54 0 81 24.5t27 78.5v44q0 34 -7.5 55t-21 32
t-31.5 14.5t-38 3.5q-30 0 -51.5 -2t-38.5 -6t-30 -9.5t-25 -12.5l-96 32l24 376h436z" />
    <glyph glyph-name="six" unicode="6" horiz-adv-x="661" 
d="M221 429q26 18 61.5 29t89.5 11q48 0 87.5 -13t67.5 -39.5t43.5 -68t15.5 -98.5v-35q0 -228 -255 -228q-256 0 -256 228v294q0 126 65 185t188 59q69 0 113 -15.5t69.5 -42.5t36.5 -63.5t14 -78.5h-127q-3 42 -26.5 59.5t-77.5 17.5q-60 0 -84.5 -29t-24.5 -92v-80z
M221 206q0 -97 110 -97q109 0 109 97v63q0 48 -27 67.5t-82 19.5t-82.5 -19.5t-27.5 -67.5v-63z" />
    <glyph glyph-name="seven" unicode="7" horiz-adv-x="565" 
d="M525 739v-90l-255 -649h-159l218 502q17 38 31 66.5t25 48.5l-2 2q-15 -2 -42.5 -2.5t-80.5 -0.5h-219v123h484z" />
    <glyph glyph-name="eight" unicode="8" horiz-adv-x="661" 
d="M91 552q0 201 240 201q239 0 239 -201v-31q0 -42 -20 -75t-52 -52q17 -9 33 -24t28 -35t19.5 -43.5t7.5 -49.5v-36q0 -219 -255 -219q-256 0 -256 219v36q0 51 22 91.5t64 60.5q-29 20 -49.5 54t-20.5 73v31zM218 195q0 -90 113 -90t113 90v58q0 90 -113 90t-113 -90v-58
zM233 511q0 -71 98 -71q97 0 97 71v52q0 71 -97 71q-98 0 -98 -71v-52z" />
    <glyph glyph-name="nine" unicode="9" horiz-adv-x="642" 
d="M75 534q0 219 246 219t246 -219v-300q0 -59 -13.5 -105t-43.5 -77.5t-77.5 -48t-116.5 -16.5q-63 0 -106 13.5t-69.5 39.5t-39 63.5t-13.5 84.5h131q5 -46 28 -62.5t74 -16.5q55 0 77.5 28t22.5 88v73q-19 -19 -50.5 -29.5t-79.5 -10.5q-105 0 -160.5 54t-55.5 165v57z
M221 457q0 -87 100 -87q52 0 76 25t24 55v93q0 87 -100 87t-100 -87v-86z" />
    <glyph glyph-name="colon" unicode=":" horiz-adv-x="336" 
d="M246 168v-168h-156v168h156zM246 567v-169h-156v169h156z" />
    <glyph glyph-name="semicolon" unicode=";" horiz-adv-x="353" 
d="M266 567v-169h-156v169h156zM268 168l-72 -271l-119 17l33 254h158z" />
    <glyph glyph-name="less" unicode="&#x3c;" horiz-adv-x="533" 
d="M472 607v-128l-265 -124l265 -124v-127l-417 209v84z" />
    <glyph glyph-name="equal" unicode="=" horiz-adv-x="666" 
d="M576 323v-115h-486v115h486zM576 538v-116h-486v116h486z" />
    <glyph glyph-name="greater" unicode="&#x3e;" horiz-adv-x="548" 
d="M480 397v-84l-417 -209v127l265 124l-265 124v128z" />
    <glyph glyph-name="question" unicode="?" horiz-adv-x="564" 
d="M52 544q1 44 13.5 82.5t40 66.5t73 44t112.5 16q104 0 165.5 -43t61.5 -133q0 -32 -9.5 -59.5t-25.5 -50t-37.5 -40.5t-45.5 -31q-37 -21 -58 -46.5t-21 -52.5q0 -28 19 -69h-131q-25 46 -25 89q0 48 28 88.5t82 70.5q42 23 62.5 46.5t20.5 51.5t-19.5 42t-67.5 14
q-56 0 -79 -23t-28 -63h-131zM346 154v-154h-142v154h142z" />
    <glyph glyph-name="at" unicode="@" horiz-adv-x="694" 
d="M197 294q0 -62 13 -102t41 -63t70.5 -32.5t101.5 -9.5q64 0 117.5 14t79.5 30l54 -100q-48 -30 -110 -42t-137 -12q-107 0 -175.5 20.5t-107.5 59.5t-54 96t-15 130v183q0 71 12 128t46.5 97t96.5 61.5t163 21.5q73 0 117.5 -19.5t68.5 -50t32 -69t8 -76.5v-364h-176
q-175 0 -175 142v69q0 81 41 120.5t107 39.5q38 0 59.5 -6t34.5 -15q-1 26 -6 48t-18 38t-36 25t-59 9q-51 0 -87.5 -10t-60 -34.5t-35 -65.5t-11.5 -103v-158zM373 347q0 -56 57 -56h80v141q-14 17 -33 27t-42 10q-62 0 -62 -65v-57z" />
    <glyph glyph-name="A" unicode="A" horiz-adv-x="684" 
d="M397 739l202 -437q15 -32 21.5 -67.5t6.5 -73.5v-161h-143v143h-289v-143h-138v161q0 35 6.5 72t21.5 69l202 437h110zM205 249h268l-92 224q-12 29 -23.5 60t-17.5 60q-5 -29 -17 -59.5t-24 -59.5z" />
    <glyph glyph-name="B" unicode="B" horiz-adv-x="660" 
d="M342 739q197 0 197 -164v-73q0 -13 -3.5 -27.5t-10.5 -28t-17.5 -24.5t-23.5 -17q21 -5 41.5 -16.5t36.5 -28.5t25.5 -38.5t9.5 -46.5v-98q0 -177 -236 -177h-271v739h252zM236 123h136q83 0 83 60v93q0 54 -70 54h-149v-207zM236 439h106q57 0 57 65v65q0 47 -49 47
h-114v-177z" />
    <glyph glyph-name="C" unicode="C" horiz-adv-x="669" 
d="M221 225q0 -116 128 -116q66 0 96 23.5t34 77.5h126q-10 -119 -69.5 -171t-178.5 -52q-144 0 -213 60.5t-69 186.5v272q0 125 69 186t213 61q125 0 184.5 -58t63.5 -176h-126q-5 61 -34.5 86t-95.5 25q-128 0 -128 -115v-290z" />
    <glyph glyph-name="D" unicode="D" horiz-adv-x="686" 
d="M355 739q256 0 256 -318v-92q0 -329 -256 -329h-265v739h265zM236 123h119q110 0 110 197v115q0 181 -110 181h-119v-493z" />
    <glyph glyph-name="E" unicode="E" horiz-adv-x="595" 
d="M532 739v-123h-296v-164h272v-123h-272v-206h296v-123h-442v739h442z" />
    <glyph glyph-name="F" unicode="F" horiz-adv-x="566" 
d="M524 739v-123h-288v-179h266v-123h-266v-314h-146v739h434z" />
    <glyph glyph-name="G" unicode="G" horiz-adv-x="697" 
d="M221 225q0 -58 36 -87t123 -29q57 0 83.5 11.5t26.5 30.5v150h-142v111h274v-249q0 -39 -10 -71t-35.5 -55.5t-69.5 -36.5t-112 -13q-86 0 -147 15.5t-99.5 46t-56 77t-17.5 108.5v272q0 247 274 247q131 0 199.5 -54t70.5 -163h-138q-5 55 -38.5 74.5t-93.5 19.5
q-128 0 -128 -115v-290z" />
    <glyph glyph-name="H" unicode="H" 
d="M236 739v-294h227v294h146v-739h-146v323h-227v-323h-146v739h146z" />
    <glyph glyph-name="I" unicode="I" horiz-adv-x="326" 
d="M236 739v-739h-146v739h146z" />
    <glyph glyph-name="J" unicode="J" horiz-adv-x="585" 
d="M495 739v-571q0 -181 -230 -181q-113 0 -160 45.5t-47 136.5v71h124v-80q0 -51 83 -51q84 0 84 50v580h146z" />
    <glyph glyph-name="K" unicode="K" horiz-adv-x="670" 
d="M229 739v-244q0 -38 -0.5 -70t-1.5 -46q14 20 34 48t39 51l110 137q20 26 20 63v61h144v-42q0 -42 -16 -82t-48 -75l-107 -115l157 -223q54 -77 54 -154v-48h-144v49q0 44 -20 73l-95 138q-14 20 -24.5 38t-17.5 32q-10 -14 -21.5 -29.5t-23 -29.5t-22 -26t-18.5 -19
q1 -19 1 -40v-44v-142h-139v739h139z" />
    <glyph glyph-name="L" unicode="L" horiz-adv-x="547" 
d="M236 739v-616h265v-123h-411v739h146z" />
    <glyph glyph-name="M" unicode="M" horiz-adv-x="901" 
d="M249 739l163 -437q12 -33 24 -68t19 -73h4q7 34 19 71t24 70l162 437h147v-739h-123v302q0 95 12 229h-4q-11 -48 -28 -102t-34 -102l-115 -327h-127l-121 327q-19 51 -36.5 100.5t-28.5 103.5h-4q12 -134 12 -229v-302h-124v739h159z" />
    <glyph glyph-name="N" unicode="N" horiz-adv-x="730" 
d="M248 739l221 -451q14 -30 23 -56t23 -55h4q-4 45 -5.5 87t-1.5 81v394h128v-739h-164l-211 424q-8 17 -22 48.5t-28 67.5h-4q4 -43 6 -85.5t2 -84.5v-370h-129v739h158z" />
    <glyph glyph-name="O" unicode="O" 
d="M75 506q0 247 274 247q275 0 275 -247v-272q0 -247 -275 -247q-274 0 -274 247v272zM221 225q0 -116 128 -116q129 0 129 116v290q0 115 -129 115q-128 0 -128 -115v-290z" />
    <glyph glyph-name="P" unicode="P" horiz-adv-x="630" 
d="M388 739q208 0 208 -244q0 -239 -208 -239h-152v-256h-146v739h298zM236 379h162q61 0 61 116q0 121 -61 121h-162v-237z" />
    <glyph glyph-name="Q" unicode="Q" 
d="M75 506q0 247 274 247q275 0 275 -247v-262q0 -188 -159 -233l33 -122h-102l-22 109q-72 0 -127.5 13.5t-93.5 43.5t-58 76.5t-20 112.5v262zM219 222q0 -116 130 -116l-37 127h106l22 -110q18 8 29 31t11 68v293q0 115 -131 115q-130 0 -130 -115v-293z" />
    <glyph glyph-name="R" unicode="R" horiz-adv-x="685" 
d="M419 739q50 0 85 -16t57 -45.5t32 -70.5t10 -91q0 -52 -7.5 -90.5t-22.5 -66.5t-36.5 -46t-49.5 -28l141 -285h-162l-112 263h-118v-263h-146v739h329zM236 375h170q30 0 45 35.5t15 92.5q0 22 -2.5 42.5t-8.5 36.5t-16 25t-24 9h-179v-241z" />
    <glyph glyph-name="S" unicode="S" horiz-adv-x="670" 
d="M408 433q36 -12 70.5 -28.5t62 -41.5t44 -61.5t16.5 -88.5q0 -48 -17.5 -89.5t-52.5 -72t-88 -47.5t-123 -17q-128 0 -187 56t-62 163h126q8 -55 41.5 -76t93.5 -21q63 0 96 29t33 68q0 27 -8.5 44.5t-22 29.5t-31.5 19.5t-37 13.5l-99 32q-38 12 -70 30.5t-55.5 44.5
t-37 60t-13.5 78q0 97 62 146t180 49q66 0 112 -11t75 -36t43 -66t16 -101h-123q0 30 -10 48t-26.5 27.5t-38.5 12.5t-46 3q-109 0 -109 -70q0 -22 7 -37t18.5 -25t25 -16.5t25.5 -10.5z" />
    <glyph glyph-name="T" unicode="T" horiz-adv-x="567" 
d="M540 739v-123h-181v-616h-146v616h-183v123h510z" />
    <glyph glyph-name="U" unicode="U" horiz-adv-x="722" 
d="M237 739v-514q0 -116 132 -116q127 0 127 116v514h139v-505q0 -247 -274 -247q-275 0 -275 247v505h151z" />
    <glyph glyph-name="V" unicode="V" horiz-adv-x="654" 
d="M200 739v-170q0 -34 20 -86l70 -183q11 -30 21 -61t18 -61q8 30 18 61.5t21 60.5l72 183q19 48 19 86v170h138v-161q0 -35 -7 -72t-21 -69l-187 -437h-110l-187 437q-28 65 -28 141v161h143z" />
    <glyph glyph-name="W" unicode="W" horiz-adv-x="887" 
d="M198 739v-247q0 -38 3 -60t11 -43l26 -76q10 -29 20 -60.5t16 -55.5h4q7 24 18 55.5t23 60.5l37 91q13 32 20 65t7 67v203h136v-203q0 -67 26 -131l37 -92q11 -28 23.5 -62t17.5 -53h4q5 19 15.5 53t20.5 62l26 76q7 21 9 43.5t5 60.5v246h127v-252q0 -38 -8 -78t-23 -82
l-121 -327h-103l-94 222l-22 52t-14 54h-4q-7 -26 -16 -53t-20 -53l-92 -222h-103l-121 327q-32 87 -32 160v252h141z" />
    <glyph glyph-name="X" unicode="X" horiz-adv-x="696" 
d="M213 739v-65q0 -17 2.5 -30t10.5 -21l126 -147l121 147q14 17 14 50v66h134v-54q0 -86 -59 -151l-133 -147l154 -172q62 -70 62 -152v-63h-148v72q0 42 -21 66l-139 161l-133 -161q-23 -28 -23 -66v-72h-134v63q0 36 15.5 76t45.5 75l153 171l-134 149q-29 32 -45.5 70.5
t-16.5 80.5v54h148z" />
    <glyph glyph-name="Y" unicode="Y" horiz-adv-x="647" 
d="M193 739v-98q0 -25 10 -41l75 -129q16 -27 27.5 -48t19.5 -39h4q8 17 19.5 38.5t27.5 48.5l75 130q11 20 11 40v98h139v-93q0 -44 -37 -108l-166 -285v-253h-146v250l-175 288q-16 26 -23 53t-7 55v93h146z" />
    <glyph glyph-name="Z" unicode="Z" horiz-adv-x="611" 
d="M553 739v-96l-267 -412q-29 -45 -46.5 -69.5t-29.5 -38.5l2 -3q30 3 140 3h215v-123h-517v98l270 421q25 39 39 60t29 39l-2 3q-19 -2 -51.5 -3.5t-80.5 -1.5h-192v123h491z" />
    <glyph glyph-name="bracketleft" unicode="[" horiz-adv-x="325" 
d="M262 769v-94h-83v-792h83v-94h-199v980h199z" />
    <glyph glyph-name="backslash" unicode="\" horiz-adv-x="504" 
d="M134 732l373 -858h-113l-373 858h113z" />
    <glyph glyph-name="bracketright" unicode="]" horiz-adv-x="325" 
d="M262 769v-980h-199v94h83v792h-83v94h199z" />
    <glyph glyph-name="asciicircum" unicode="^" horiz-adv-x="523" 
d="M301 725l195 -417h-151l-83 248h-4l-87 -248h-144l190 417h84z" />
    <glyph glyph-name="underscore" unicode="_" horiz-adv-x="609" 
d="M610 -6v-109h-611v109h611z" />
    <glyph glyph-name="grave" unicode="`" horiz-adv-x="425" 
d="M325 657l-46 -63l-199 101l66 81z" />
    <glyph glyph-name="a" unicode="a" horiz-adv-x="583" 
d="M77 394q3 31 13.5 60t34.5 51.5t65 36t106 13.5q60 0 100.5 -11.5t65 -35.5t35.5 -61.5t11 -89.5v-320q-21 -10 -44 -18.5t-53.5 -14.5t-71 -9.5t-95.5 -3.5q-91 0 -136 39t-45 127v23q0 84 45.5 118t135.5 34q60 0 89 -4.5t41 -9.5v59q0 35 -19.5 53t-62.5 18
q-38 0 -61 -12.5t-28 -41.5h-126zM200 139q0 -45 43 -45q54 0 85.5 3t45.5 8v121q-18 6 -47.5 9.5t-83.5 3.5q-43 0 -43 -39v-61z" />
    <glyph glyph-name="b" unicode="b" horiz-adv-x="588" 
d="M218 787v-264q27 14 67 23t83 9q160 0 160 -151v-234q0 -179 -205 -179q-142 0 -243 34v716zM218 113q17 -2 40 -3.5t65 -1.5q67 0 67 50v259q0 21 -22 21q-42 0 -80.5 -6t-69.5 -21v-298z" />
    <glyph glyph-name="c" unicode="c" horiz-adv-x="575" 
d="M60 315q0 240 235 240q54 0 93.5 -11t66 -35.5t40.5 -63.5t17 -95h-124q0 48 -27 71t-66 23q-48 0 -72.5 -30.5t-24.5 -85.5v-110q0 -55 24.5 -85t75.5 -30q35 0 60 22.5t30 61.5h124q-3 -45 -16.5 -81.5t-39 -62t-65 -39t-93.5 -13.5q-238 0 -238 240v84z" />
    <glyph glyph-name="d" unicode="d" horiz-adv-x="604" 
d="M524 787v-762q-52 -17 -110 -25.5t-116 -8.5q-238 0 -238 227v164q0 173 193 173q45 0 77.5 -7t54.5 -24v217zM198 205q0 -97 100 -97q23 0 45.5 1.5t41.5 3.5v300q-43 25 -132 25q-55 0 -55 -43v-190z" />
    <glyph glyph-name="e" unicode="e" horiz-adv-x="573" 
d="M60 315q0 120 63.5 180t171.5 60q218 0 218 -242v-67h-315v-28q0 -55 23.5 -85t71.5 -30q49 0 67.5 18t20.5 44h125q-11 -83 -60 -128.5t-148 -45.5q-238 0 -238 240v84zM385 341q0 52 -20 78t-72 26t-73 -25t-21 -79h186z" />
    <glyph glyph-name="f" unicode="f" horiz-adv-x="357" 
d="M76 546v92q0 149 155 149q33 0 63.5 -7t68.5 -25l-40 -94q-29 13 -48.5 18.5t-43.5 5.5q-17 0 -17 -24v-115h104v-97h-104v-449h-138v449h-52v97h52z" />
    <glyph glyph-name="g" unicode="g" horiz-adv-x="586" 
d="M57 299q0 256 252 256q94 0 197 -35v-574q0 -165 -195 -165q-46 0 -101.5 9.5t-122.5 29.5l39 117q113 -40 185 -40q57 0 57 36v112q-23 -15 -55 -23t-64 -8q-192 0 -192 196v89zM196 195q0 -68 53 -68q27 0 58.5 6.5t60.5 23.5v277q-15 2 -30 3t-29 1q-113 0 -113 -126
v-117z" />
    <glyph glyph-name="h" unicode="h" horiz-adv-x="608" 
d="M218 787v-262q28 13 68.5 21.5t86.5 8.5q155 0 155 -151v-404h-138v417q0 21 -17 21q-42 0 -82.5 -7t-72.5 -18v-413h-138v741z" />
    <glyph glyph-name="i" unicode="i" horiz-adv-x="298" 
d="M218 546v-546h-138v546h138zM218 787v-151h-138v151h138z" />
    <glyph glyph-name="j" unicode="j" horiz-adv-x="291" 
d="M211 546v-616q0 -149 -156 -149q-33 0 -63 6.5t-69 25.5l39 94q30 -12 50 -18t43 -6q18 0 18 24v639h138zM211 787v-151h-138v151h138z" />
    <glyph glyph-name="k" unicode="k" horiz-adv-x="595" 
d="M218 787v-367q0 -47 -1.5 -74t-3.5 -47l4 -2q7 9 14.5 17t16.5 17t21 20.5t29 27.5l88 80q9 8 15 20t6 29v37h132v-37q0 -38 -19.5 -72.5t-56.5 -65.5q-17 -14 -27.5 -22t-17.5 -13.5t-11.5 -8.5t-8.5 -6v-4l14 -14t30 -38l68 -91q18 -26 27 -49.5t9 -65.5v-58h-135v52
q0 30 -18 56l-46 68q-18 27 -26 41.5t-12 23.5h-4q-20 -23 -41 -42t-50 -36l-1 -4q3 -15 4 -30.5t1 -39.5v-89h-138v741z" />
    <glyph glyph-name="l" unicode="l" horiz-adv-x="297" 
d="M217 787v-787h-137v741z" />
    <glyph glyph-name="m" unicode="m" horiz-adv-x="892" 
d="M218 0h-138v502q78 29 145.5 41t133.5 12q38 0 66 -11.5t40 -30.5q35 17 84.5 29.5t106.5 12.5q156 0 156 -151v-404h-139v417q0 21 -17 21q-45 0 -79 -4t-63 -11v-423h-138v417q0 21 -17 21q-45 0 -78.5 -4t-62.5 -11v-423z" />
    <glyph glyph-name="n" unicode="n" horiz-adv-x="613" 
d="M218 0h-138v503q80 29 150.5 40.5t146.5 11.5q156 0 156 -151v-404h-138v417q0 21 -18 21q-90 0 -159 -15v-423z" />
    <glyph glyph-name="o" unicode="o" horiz-adv-x="592" 
d="M60 315q0 240 235 240q237 0 237 -240v-84q0 -240 -234 -240q-238 0 -238 240v84zM198 218q0 -111 100 -111q96 0 96 111v110q0 110 -99 110q-97 0 -97 -110v-110z" />
    <glyph glyph-name="p" unicode="p" horiz-adv-x="595" 
d="M218 -219h-138v739q51 17 109.5 26t115.5 9q230 0 230 -229v-112q0 -223 -219 -223q-57 0 -98 29v-239zM218 134q21 -15 48 -21t50 -6q81 0 81 94v137q0 100 -92 100q-23 0 -46 -1t-41 -4v-299z" />
    <glyph glyph-name="q" unicode="q" horiz-adv-x="589" 
d="M60 376q0 179 206 179q43 0 80.5 -6t61.5 -15q14 9 42 15t59 6v-774h-139v242q-25 -13 -65.5 -22.5t-83.5 -9.5q-161 0 -161 151v234zM198 129q0 -21 23 -21q42 0 79.5 5.5t69.5 21.5v298q-16 3 -39 4t-65 1q-68 0 -68 -50v-259z" />
    <glyph glyph-name="r" unicode="r" horiz-adv-x="410" 
d="M218 0h-138v498q51 31 109 44t112 13q7 0 17.5 -0.5t21.5 -1t20.5 -1t13.5 -0.5v-122q-5 0 -15 0.5t-21 1.5t-22 1.5t-17 0.5q-19 0 -40.5 -4t-40.5 -9v-421z" />
    <glyph glyph-name="s" unicode="s" horiz-adv-x="549" 
d="M175 167q2 -34 26 -51.5t64 -17.5q27 0 45.5 5.5t29 14.5t15 19.5t4.5 21.5q0 23 -15.5 35t-53.5 23l-90 27q-29 9 -54 22t-43.5 32t-29.5 45t-11 59q0 78 56 115.5t158 37.5q55 0 92.5 -11t61 -32t34 -51.5t12.5 -69.5h-119q-2 32 -22 46t-60 14q-25 0 -40 -4
t-23.5 -10.5t-11 -15t-2.5 -16.5q0 -13 5.5 -21.5t13.5 -14t17.5 -8.5t17.5 -5l91 -27q27 -8 54 -19.5t48.5 -30t34.5 -45.5t13 -66q0 -38 -13 -70t-41 -56t-72 -37.5t-105 -13.5q-58 0 -98 13.5t-65 37.5t-36.5 56t-12.5 69h125z" />
    <glyph glyph-name="t" unicode="t" horiz-adv-x="389" 
d="M226 686v-140h107v-97h-107v-332q0 -24 17 -24q23 0 43.5 5.5t49.5 18.5l38 -94q-27 -14 -57 -23t-75 -9q-154 0 -154 149v309h-53v97h53v110z" />
    <glyph glyph-name="u" unicode="u" horiz-adv-x="605" 
d="M220 546v-417q0 -22 17 -22q46 0 82.5 4t68.5 12v423h137v-504q-40 -14 -76 -24t-71 -16t-70 -8.5t-73 -2.5q-155 0 -155 151v404h140z" />
    <glyph glyph-name="v" unicode="v" horiz-adv-x="555" 
d="M185 546v-140q0 -33 12 -58l37 -80q19 -41 29.5 -65.5t16.5 -46.5h4q8 22 18 46t30 66l38 80q13 27 13 69v129h126v-141q0 -57 -29 -113l-152 -292h-101l-151 292q-30 58 -30 125v129h139z" />
    <glyph glyph-name="w" unicode="w" horiz-adv-x="820" 
d="M185 546v-164q0 -17 3 -35t9 -33l18 -50q13 -36 21.5 -60.5t14.5 -45.5h4q6 22 15 45t26 61l34 78q20 46 20 98v106h132v-106q0 -56 19 -98l33 -78q11 -26 22 -53t19 -52h4q8 25 16.5 52t18.5 53l19 50q13 33 13 68v164h128v-153q0 -66 -27 -129l-114 -264h-114l-64 145
q-12 26 -22.5 53t-18.5 49h-4q-8 -22 -17 -46t-23 -56l-63 -145h-121l-113 264q-27 64 -27 129v153h139z" />
    <glyph glyph-name="x" unicode="x" horiz-adv-x="568" 
d="M200 546v-64q0 -15 6 -21l84 -96l84 96q4 4 4 21v64h126v-65q0 -26 -9.5 -50t-30.5 -46l-99 -101l102 -106q26 -28 38.5 -61t12.5 -67v-50h-138v57q0 13 -3 25t-11 21l-91 102l-87 -102q-6 -8 -10 -18.5t-3 -26.5v-58h-125v50q0 36 12 68.5t38 59.5l103 106l-97 100
q-44 44 -44 98v64h138z" />
    <glyph glyph-name="y" unicode="y" horiz-adv-x="608" 
d="M218 546v-432q0 -11 6.5 -16.5t23.5 -5.5q37 0 66 1.5t56 8.5q13 45 21 91.5t8 94.5v258h137v-256q0 -75 -16 -146t-42 -135.5t-60 -122t-70 -105.5h-161q21 24 41 49.5t38.5 51.5t33.5 50.5t25 45.5q-38 -3 -90 -3q-155 0 -155 152v419h138z" />
    <glyph glyph-name="z" unicode="z" horiz-adv-x="552" 
d="M488 546v-86l-192 -246q-18 -24 -30.5 -39.5t-21 -25.5t-14.5 -16t-11 -10l1 -3q16 3 45.5 4t89.5 1h144v-125h-447v91l185 245q19 25 32 42t21.5 27.5t14 16.5t10.5 9l-2 3q-6 -2 -13.5 -3t-20 -1h-32h-49.5h-142v116h432z" />
    <glyph glyph-name="braceleft" unicode="{" horiz-adv-x="368" 
d="M305 769v-102h-66q-15 0 -20 -28.5t-5 -97.5v-150q0 -35 -14.5 -61t-39.5 -43q32 -20 43 -42t11 -56v-205q0 -33 1 -52t4 -28t7.5 -11t12.5 -2h66v-103h-75q-23 0 -46.5 6.5t-42.5 23t-31 44.5t-12 72v217q0 48 -7 66t-20 18h-40v111h40q15 0 21 20t6 59v211
q0 38 11.5 63.5t30 41t41.5 22t46 6.5h78z" />
    <glyph glyph-name="bar" unicode="|" horiz-adv-x="291" 
d="M201 755v-931h-111v931h111z" />
    <glyph glyph-name="braceright" unicode="}" horiz-adv-x="373" 
d="M141 769q23 0 46 -6.5t41.5 -22t30 -41t11.5 -63.5v-211q0 -39 6 -59t21 -20h40v-111h-40q-13 0 -20 -18t-7 -66v-217q0 -44 -12 -72t-31 -44.5t-42.5 -23t-46.5 -6.5h-75v103h66q7 0 12 2t8 11t4 28t1 52v205q0 34 11 56t42 42q-27 17 -40 42t-13 62v150q0 69 -5 97.5
t-20 28.5h-66v102h78z" />
    <glyph glyph-name="asciitilde" unicode="~" horiz-adv-x="593" 
d="M51 384q19 29 54 47.5t83 18.5q28 0 54 -10t51 -22.5t50.5 -22.5t52.5 -10q39 0 76.5 22.5t71.5 82.5v-161q-21 -31 -54.5 -46.5t-76.5 -15.5q-37 0 -67 10t-56 22.5t-49.5 22.5t-47.5 10q-39 0 -72 -19.5t-70 -69.5v141z" />
    <glyph glyph-name="nonbreakingspace" unicode="&#xa0;" horiz-adv-x="452" 
 />
    <glyph glyph-name="exclamdown" unicode="&#xa1;" horiz-adv-x="334" 
d="M233 315l21 -513h-174l20 513h133zM237 566v-154h-141v154h141z" />
    <glyph glyph-name="cent" unicode="&#xa2;" horiz-adv-x="578" 
d="M343 739v-97q78 -8 121 -50t51 -134h-111q-1 51 -30.5 72.5t-77.5 21.5q-116 0 -116 -131v-114q0 -131 119 -131q91 0 103 83h111q-11 -76 -52.5 -120.5t-117.5 -53.5v-85h-99v85q-181 27 -181 235v87q0 210 181 235v97h99z" />
    <glyph glyph-name="sterling" unicode="&#xa3;" horiz-adv-x="581" 
d="M158 387q1 17 1.5 43t0.5 45q0 148 57.5 212.5t170.5 64.5q19 0 42.5 -4t45 -10.5t38 -16t21.5 -19.5l-54 -81q-18 12 -31.5 18.5t-24 10t-20 4t-18.5 0.5q-20 0 -39.5 -9t-35 -29.5t-25 -55t-9.5 -85.5v-45t-1 -43h118v-97h-131q-9 -55 -28.5 -104t-42.5 -89h348v-97
h-496v97h23q28 40 47.5 86.5t30.5 106.5h-77v97h89z" />
    <glyph glyph-name="currency" unicode="&#xa4;" horiz-adv-x="570" 
d="M134 591l73 -74q36 14 77 14q37 0 78 -15l77 75l74 -72l-74 -74q15 -32 15 -78q0 -23 -3.5 -42.5t-11.5 -37.5l73 -73l-75 -73l-76 75q-19 -7 -38.5 -10t-38.5 -3q-20 0 -38.5 2t-37.5 10l-77 -76l-74 75l73 73q-8 18 -11.5 37.5t-3.5 42.5q0 22 4.5 42.5t11.5 36.5
l-74 73zM284 450q-42 0 -59 -22.5t-17 -58.5q0 -35 17 -60t59 -25t59.5 25t17.5 60q0 36 -17.5 58.5t-59.5 22.5z" />
    <glyph glyph-name="yen" unicode="&#xa5;" horiz-adv-x="569" 
d="M162 739l77 -145q13 -25 23.5 -51t21.5 -52h3q12 26 23.5 52.5t24.5 50.5l78 145h131l-198 -346v-100h184v-92h-184v-201h-121v201h-184v92h184v101l-198 345h135z" />
    <glyph glyph-name="brokenbar" unicode="&#xa6;" horiz-adv-x="291" 
d="M201 225v-401h-111v401h111zM201 755v-414h-111v414h111z" />
    <glyph glyph-name="section" unicode="&#xa7;" horiz-adv-x="585" 
d="M372 518q24 -8 46 -18.5t38 -27t25.5 -40t9.5 -57.5q0 -33 -15.5 -64t-40.5 -52q25 -20 42.5 -45.5t17.5 -63.5q0 -35 -12 -65t-37.5 -51.5t-65.5 -34t-95 -12.5q-96 0 -142.5 37t-52.5 122h103q2 -31 25.5 -51t68.5 -20q52 0 74 20t22 46q0 18 -5 29.5t-14 19t-22 12.5
t-28 10l-85 27q-23 7 -45 19t-39.5 29t-28 41t-10.5 55q0 35 19.5 65t55.5 44q-32 18 -55 47t-23 69q0 69 50 103.5t141 34.5q99 0 140.5 -39t41.5 -105h-96q0 32 -25.5 44t-60.5 12q-81 0 -81 -47q0 -30 17.5 -42t49.5 -22zM333 303q28 8 40 25t12 38q0 18 -4.5 30
t-14.5 21t-26.5 16t-39.5 15q-38 -2 -63 -14.5t-25 -46.5q0 -27 14.5 -41t43.5 -23z" />
    <glyph glyph-name="dieresis" unicode="&#xa8;" horiz-adv-x="499" 
d="M409 749v-136h-123v136h123zM214 749v-136h-124v136h124z" />
    <glyph glyph-name="copyright" unicode="&#xa9;" horiz-adv-x="839" 
d="M423 746q341 0 341 -380q0 -195 -84 -287t-257 -92q-171 0 -259.5 93t-88.5 286q0 194 87 287t261 93zM423 670q-52 0 -97 -14.5t-78.5 -49t-53 -92.5t-19.5 -146q0 -90 19.5 -149t53 -94t78.5 -49.5t97 -14.5t96.5 15t76.5 50.5t50.5 94.5t18.5 147q0 87 -18.5 145
t-50.5 93t-76.5 49.5t-96.5 14.5zM261 396q0 160 160 160q69 0 106 -28.5t43 -102.5h-84q0 33 -18 47.5t-47 14.5q-73 0 -73 -84v-74q0 -84 75 -84q55 0 62 55h85q-8 -60 -44.5 -91.5t-102.5 -31.5q-162 0 -162 160v59z" />
    <glyph glyph-name="ordfeminine" unicode="&#xaa;" horiz-adv-x="502" 
d="M75 626q6 30 17 52.5t31 37.5t50.5 22.5t75.5 7.5q88 0 125.5 -37.5t37.5 -113.5v-243q-17 -8 -35 -14.5t-41 -11.5t-54 -8t-73 -3q-139 0 -139 134v15q0 66 34.5 92t104.5 26q38 0 61.5 -4t35.5 -9v36q0 28 -13.5 44t-43.5 16q-31 0 -47.5 -8t-20.5 -31h-106zM176 438
q0 -17 8 -28.5t25 -11.5q42 0 63.5 4t33.5 8v89q-17 4 -41 7.5t-56 3.5q-17 0 -25 -10t-8 -25v-37z" />
    <glyph glyph-name="guillemotleft" unicode="&#xab;" horiz-adv-x="651" 
d="M561 451l-115 -148l115 -149l-81 -78l-166 227l167 227zM337 451l-116 -148l116 -149l-82 -78l-165 227l165 227z" />
    <glyph glyph-name="uni00AD" unicode="&#xad;" horiz-adv-x="476" 
d="M386 336v-89h-296v89h296z" />
    <glyph glyph-name="registered" unicode="&#xae;" horiz-adv-x="700" 
d="M354 746q256 0 256 -286q0 -147 -62.5 -215t-193.5 -68q-130 0 -197 69t-67 214q0 148 65 217t199 69zM354 681q-38 0 -70.5 -10.5t-56.5 -35.5t-38 -67.5t-14 -105.5q0 -65 14 -107.5t38 -68t56.5 -36t70.5 -10.5q37 0 68.5 10.5t54.5 36t36 68t13 107.5q0 63 -13 105
t-36 67.5t-54.5 36t-68.5 10.5zM382 599q39 0 56 -22.5t17 -59.5q0 -32 -9.5 -50t-29.5 -26l52 -108h-77l-34 88h-28v-88h-70v266h123zM329 476h40q11 0 14.5 8t3.5 28q0 18 -3.5 24.5t-13.5 6.5h-41v-67z" />
    <glyph glyph-name="degree" unicode="&#xb0;" horiz-adv-x="453" 
d="M226 670q-45 0 -62.5 -24.5t-17.5 -62.5t18.5 -64t61.5 -26t62.5 26t19.5 64t-18.5 62.5t-63.5 24.5zM57 581q0 34 9.5 64t30 52t52.5 35t77 13q46 0 78 -13t52.5 -35t30 -52t9.5 -64t-9.5 -64t-30 -52t-52.5 -35t-78 -13q-45 0 -77 13t-52.5 35t-30 52t-9.5 64z" />
    <glyph glyph-name="twosuperior" unicode="&#xb2;" horiz-adv-x="422" 
d="M90 660q0 57 27.5 87.5t93.5 30.5q60 0 89 -25.5t29 -73.5q0 -28 -7.5 -50t-30.5 -42q-15 -13 -32.5 -25.5t-33 -25.5t-26.5 -27.5t-12 -31.5h145v-66h-234v45q0 33 11.5 56t28 40.5t36.5 31t36.5 27t28 28.5t11.5 36q0 18 -8.5 27t-29.5 9q-20 0 -32 -11t-13 -40h-77z
" />
    <glyph glyph-name="threesuperior" unicode="&#xb3;" horiz-adv-x="431" 
d="M96 672q3 57 29 81.5t89 24.5t88.5 -24.5t25.5 -69.5q0 -31 -10 -50.5t-26 -27.5q20 -11 34.5 -32.5t14.5 -56.5q0 -58 -33.5 -85t-93.5 -27q-63 0 -92 24.5t-32 81.5h76q2 -29 14 -34t33 -5q23 0 37.5 10.5t14.5 34.5q0 29 -14 39.5t-30 10.5h-55v60h52q15 0 24 13.5
t9 30.5q0 40 -37 40q-41 0 -42 -39h-76z" />
    <glyph glyph-name="acute" unicode="&#xb4;" horiz-adv-x="424" 
d="M279 776l65 -81l-198 -101l-46 63z" />
    <glyph glyph-name="mu" unicode="&#xb5;" horiz-adv-x="638" 
d="M231 546v-419q21 -6 49.5 -12t51.5 -6q82 0 82 97v340h141v-327q0 -228 -223 -228q-29 0 -53.5 2t-47.5 7v-219h-141v765h141z" />
    <glyph glyph-name="mu" unicode="&#x3bc;" horiz-adv-x="638" 
d="M231 546v-419q21 -6 49.5 -12t51.5 -6q82 0 82 97v340h141v-327q0 -228 -223 -228q-29 0 -53.5 2t-47.5 7v-219h-141v765h141z" />
    <glyph glyph-name="paragraph" unicode="&#xb6;" horiz-adv-x="608" 
d="M551 739l-48 -97v-824h-119v687h-100v-687h-121v690q-57 14 -81.5 45t-24.5 68q0 24 9.5 45t29.5 37.5t51 26t74 9.5h330z" />
    <glyph glyph-name="periodcentered" unicode="&#xb7;" horiz-adv-x="316" 
d="M236 474v-170h-156v170h156z" />
    <glyph glyph-name="cedilla" unicode="&#xb8;" horiz-adv-x="334" 
d="M244 33q-15 -122 -95 -229l-59 41q40 90 45 188h109z" />
    <glyph glyph-name="onesuperior" unicode="&#xb9;" horiz-adv-x="355" 
d="M212 773h53v-362h-83v271l-57 -29l-35 61z" />
    <glyph glyph-name="ordmasculine" unicode="&#xba;" horiz-adv-x="543" 
d="M90 562q0 184 179 184q184 0 184 -184v-62q0 -185 -181 -185q-182 0 -182 185v62zM196 489q0 -87 76 -87q75 0 75 87v84q0 86 -78 86q-73 0 -73 -86v-84z" />
    <glyph glyph-name="guillemotright" unicode="&#xbb;" horiz-adv-x="651" 
d="M172 530l165 -227l-165 -227l-82 78l114 149l-114 148zM396 530l165 -227l-165 -227l-82 78l114 149l-114 148z" />
    <glyph glyph-name="onequarter" unicode="&#xbc;" horiz-adv-x="861" 
d="M754 732l-512 -732h-101l510 732h103zM223 747h56v-398h-88v300l-63 -33l-38 66zM740 396v-263h31v-71h-31v-62h-87v62h-157v54l168 280h76zM654 275q-6 -11 -12 -24t-18 -33l-53 -85h82v75q0 19 2 35.5t4 30.5z" />
    <glyph glyph-name="onehalf" unicode="&#xbd;" horiz-adv-x="909" 
d="M754 732l-511 -732h-101l510 732h102zM563 277q0 60 30 92.5t102 32.5q66 0 95 -28t29 -80q0 -28 -11.5 -55.5t-37.5 -52.5q-22 -21 -42.5 -35.5t-37 -26.5t-26.5 -24.5t-10 -29.5h165v-70h-253v58q0 45 21.5 74t57.5 55q13 9 29 20t29.5 24t22.5 29t9 36q0 35 -46 35
q-22 0 -35.5 -13t-13.5 -41h-77zM223 747h56v-398h-88v300l-63 -33l-38 66z" />
    <glyph glyph-name="threequarters" unicode="&#xbe;" horiz-adv-x="893" 
d="M776 732l-511 -732h-102l511 732h102zM96 640q0 48 28.5 79.5t96.5 31.5q67 0 95.5 -26.5t28.5 -78.5q0 -32 -11 -52.5t-26 -31.5q20 -12 35.5 -37t15.5 -60q0 -64 -36 -93.5t-102 -29.5q-70 0 -100.5 31t-30.5 86h75q2 -27 15.5 -36t38.5 -9q27 0 41.5 12t14.5 39
q0 31 -14 44.5t-33 13.5h-59l-6 60h62q17 0 26.5 16.5t9.5 36.5q0 44 -40 44q-24 0 -36.5 -7t-12.5 -33h-76zM772 396v-263h31v-71h-31v-62h-87v62h-157v54l168 280h76zM686 275q-6 -11 -12 -24t-18 -33l-53 -85h82v75q0 19 2 35.5t4 30.5z" />
    <glyph glyph-name="questiondown" unicode="&#xbf;" horiz-adv-x="546" 
d="M354 338q25 -46 25 -89q0 -48 -28 -88.5t-82 -70.5q-42 -23 -62.5 -46.5t-20.5 -51.5t19.5 -42t67.5 -14q56 0 79 23t28 63h131q-1 -44 -13.5 -82.5t-40 -66.5t-73 -44t-112.5 -16q-104 0 -165.5 43t-61.5 133q0 64 35 109t83 72q37 21 58 46t21 53t-19 69h131zM359 566
v-154h-142v154h142z" />
    <glyph glyph-name="Agrave" unicode="&#xc0;" horiz-adv-x="684" 
d="M397 739l202 -437q15 -32 21.5 -67.5t6.5 -73.5v-161h-143v143h-289v-143h-138v161q0 35 6.5 72t21.5 69l202 437h110zM205 249h268l-92 224q-12 29 -23.5 60t-17.5 60q-5 -29 -17 -59.5t-24 -59.5zM434 850l-46 -63l-199 101l66 81z" />
    <glyph glyph-name="Aacute" unicode="&#xc1;" horiz-adv-x="684" 
d="M397 739l202 -437q15 -32 21.5 -67.5t6.5 -73.5v-161h-143v143h-289v-143h-138v161q0 35 6.5 72t21.5 69l202 437h110zM205 249h268l-92 224q-12 29 -23.5 60t-17.5 60q-5 -29 -17 -59.5t-24 -59.5zM429 969l65 -81l-198 -101l-46 63z" />
    <glyph glyph-name="Acircumflex" unicode="&#xc2;" horiz-adv-x="684" 
d="M397 739l202 -437q15 -32 21.5 -67.5t6.5 -73.5v-161h-143v143h-289v-143h-138v161q0 35 6.5 72t21.5 69l202 437h110zM205 249h268l-92 224q-12 29 -23.5 60t-17.5 60q-5 -29 -17 -59.5t-24 -59.5zM305 969h73l135 -125l-60 -57l-111 89l-111 -89l-61 57z" />
    <glyph glyph-name="Atilde" unicode="&#xc3;" horiz-adv-x="684" 
d="M397 739l202 -437q15 -32 21.5 -67.5t6.5 -73.5v-161h-143v143h-289v-143h-138v161q0 35 6.5 72t21.5 69l202 437h110zM205 249h268l-92 224q-12 29 -23.5 60t-17.5 60q-5 -29 -17 -59.5t-24 -59.5zM165 847q4 15 12.5 30.5t22 28t31.5 20t41 7.5t40.5 -5t32.5 -11.5
t28.5 -11.5t27.5 -5q17 0 31 9.5t20 31.5l66 -37q-4 -15 -13 -30.5t-22.5 -28t-31.5 -20t-40 -7.5q-24 0 -42 5t-33.5 11.5t-30.5 11.5t-33 5q-26 0 -39 -42z" />
    <glyph glyph-name="Adieresis" unicode="&#xc4;" horiz-adv-x="684" 
d="M397 739l202 -437q15 -32 21.5 -67.5t6.5 -73.5v-161h-143v143h-289v-143h-138v161q0 35 6.5 72t21.5 69l202 437h110zM205 249h268l-92 224q-12 29 -23.5 60t-17.5 60q-5 -29 -17 -59.5t-24 -59.5zM501 942v-136h-123v136h123zM306 942v-136h-124v136h124z" />
    <glyph glyph-name="Aring" unicode="&#xc5;" horiz-adv-x="684" 
d="M599 302q15 -32 21.5 -67.5t6.5 -73.5v-161h-143v143h-289v-143h-138v161q0 35 6.5 72t21.5 69l196 424q-38 13 -54 43.5t-16 73.5q0 58 29.5 92t100.5 34t101 -34t30 -92q0 -43 -16 -73t-54 -43zM205 249h268l-92 224q-12 29 -23.5 60t-17.5 60q-5 -29 -17 -59.5
t-24 -59.5zM341 912q-33 0 -48 -18.5t-15 -50.5q0 -31 15 -49t48 -18q35 0 48.5 18t13.5 49q0 32 -13.5 50.5t-48.5 18.5z" />
    <glyph glyph-name="AE" unicode="&#xc6;" horiz-adv-x="894" 
d="M831 739v-123h-285v-164h262v-123h-262v-206h285v-123h-431v143h-197v-143h-146v160q0 75 29 141l197 438h548zM367 616q-8 -26 -18 -56.5t-23 -59.5l-108 -251h182v367h-33z" />
    <glyph glyph-name="Ccedilla" unicode="&#xc7;" horiz-adv-x="669" 
d="M221 225q0 -116 128 -116q66 0 96 23.5t34 77.5h126q-9 -108 -57 -160t-145 -61q-22 -96 -87 -185l-59 41q32 74 41 145q-223 24 -223 244v272q0 125 69 186t213 61q125 0 184.5 -58t63.5 -176h-126q-5 61 -34.5 86t-95.5 25q-128 0 -128 -115v-290z" />
    <glyph glyph-name="Egrave" unicode="&#xc8;" horiz-adv-x="595" 
d="M532 739v-123h-296v-164h272v-123h-272v-206h296v-123h-442v739h442zM440 850l-46 -63l-199 101l66 81z" />
    <glyph glyph-name="Eacute" unicode="&#xc9;" horiz-adv-x="595" 
d="M532 739v-123h-296v-164h272v-123h-272v-206h296v-123h-442v739h442zM384 969l65 -81l-198 -101l-46 63z" />
    <glyph glyph-name="Ecircumflex" unicode="&#xca;" horiz-adv-x="595" 
d="M532 739v-123h-296v-164h272v-123h-272v-206h296v-123h-442v739h442zM261 969h73l135 -125l-60 -57l-111 89l-111 -89l-61 57z" />
    <glyph glyph-name="Edieresis" unicode="&#xcb;" horiz-adv-x="595" 
d="M532 739v-123h-296v-164h272v-123h-272v-206h296v-123h-442v739h442zM457 942v-136h-123v136h123zM262 942v-136h-124v136h124z" />
    <glyph glyph-name="Igrave" unicode="&#xcc;" horiz-adv-x="326" 
d="M236 739v-739h-146v739h146zM257 850l-46 -63l-199 101l66 81z" />
    <glyph glyph-name="Iacute" unicode="&#xcd;" horiz-adv-x="326" 
d="M236 739v-739h-146v739h146zM251 969l65 -81l-198 -101l-46 63z" />
    <glyph glyph-name="Icircumflex" unicode="&#xce;" horiz-adv-x="326" 
d="M236 739v-739h-146v739h146zM128 969h73l135 -125l-60 -57l-111 89l-111 -89l-61 57z" />
    <glyph glyph-name="Idieresis" unicode="&#xcf;" horiz-adv-x="326" 
d="M236 739v-739h-146v739h146zM324 942v-136h-123v136h123zM129 942v-136h-124v136h124z" />
    <glyph glyph-name="Eth" unicode="&#xd0;" horiz-adv-x="663" 
d="M332 739q256 0 256 -318v-92q0 -329 -256 -329h-246v329h-56v123h56v287h246zM228 452h126v-123h-126v-206h107q110 0 110 197v115q0 181 -110 181h-107v-164z" />
    <glyph glyph-name="Ntilde" unicode="&#xd1;" horiz-adv-x="730" 
d="M248 739l221 -451q14 -30 23 -56t23 -55h4q-4 45 -5.5 87t-1.5 81v394h128v-739h-164l-211 424q-8 17 -22 48.5t-28 67.5h-4q4 -43 6 -85.5t2 -84.5v-370h-129v739h158zM188 847q4 15 12.5 30.5t22 28t31.5 20t41 7.5t40.5 -5t32.5 -11.5t28.5 -11.5t27.5 -5q17 0 31 9.5
t20 31.5l66 -37q-4 -15 -13 -30.5t-22.5 -28t-31.5 -20t-40 -7.5q-24 0 -42 5t-33.5 11.5t-30.5 11.5t-33 5q-26 0 -39 -42z" />
    <glyph glyph-name="Ograve" unicode="&#xd2;" 
d="M75 506q0 247 274 247q275 0 275 -247v-272q0 -247 -275 -247q-274 0 -274 247v272zM221 225q0 -116 128 -116q129 0 129 116v290q0 115 -129 115q-128 0 -128 -115v-290zM442 850l-46 -63l-199 101l66 81z" />
    <glyph glyph-name="Oacute" unicode="&#xd3;" 
d="M75 506q0 247 274 247q275 0 275 -247v-272q0 -247 -275 -247q-274 0 -274 247v272zM221 225q0 -116 128 -116q129 0 129 116v290q0 115 -129 115q-128 0 -128 -115v-290zM436 969l65 -81l-198 -101l-46 63z" />
    <glyph glyph-name="Ocircumflex" unicode="&#xd4;" 
d="M75 506q0 247 274 247q275 0 275 -247v-272q0 -247 -275 -247q-274 0 -274 247v272zM221 225q0 -116 128 -116q129 0 129 116v290q0 115 -129 115q-128 0 -128 -115v-290zM313 969h73l135 -125l-60 -57l-111 89l-111 -89l-61 57z" />
    <glyph glyph-name="Otilde" unicode="&#xd5;" 
d="M75 506q0 247 274 247q275 0 275 -247v-272q0 -247 -275 -247q-274 0 -274 247v272zM221 225q0 -116 128 -116q129 0 129 116v290q0 115 -129 115q-128 0 -128 -115v-290zM173 847q4 15 12.5 30.5t22 28t31.5 20t41 7.5t40.5 -5t32.5 -11.5t28.5 -11.5t27.5 -5
q17 0 31 9.5t20 31.5l66 -37q-4 -15 -13 -30.5t-22.5 -28t-31.5 -20t-40 -7.5q-24 0 -42 5t-33.5 11.5t-30.5 11.5t-33 5q-26 0 -39 -42z" />
    <glyph glyph-name="Odieresis" unicode="&#xd6;" 
d="M75 506q0 247 274 247q275 0 275 -247v-272q0 -247 -275 -247q-274 0 -274 247v272zM221 225q0 -116 128 -116q129 0 129 116v290q0 115 -129 115q-128 0 -128 -115v-290zM509 942v-136h-123v136h123zM314 942v-136h-124v136h124z" />
    <glyph glyph-name="multiply" unicode="&#xd7;" horiz-adv-x="595" 
d="M295 434l125 125l76 -76l-126 -124l123 -123l-70 -69l-121 122l-122 -121l-75 75l121 122l-126 125l70 70z" />
    <glyph glyph-name="Oslash" unicode="&#xd8;" 
d="M581 787l-38 -87q81 -62 81 -194v-272q0 -247 -275 -247q-31 0 -58 3.5t-51 9.5l-25 -60h-101l42 98q-81 61 -81 196v272q0 247 274 247q31 0 58.5 -3.5t51.5 -9.5l21 47h101zM221 225q0 -25 6 -46l190 439q-29 12 -68 12q-128 0 -128 -115v-290zM283 120q27 -11 66 -11
q129 0 129 116v290q0 23 -6 43z" />
    <glyph glyph-name="Ugrave" unicode="&#xd9;" horiz-adv-x="722" 
d="M237 739v-514q0 -116 132 -116q127 0 127 116v514h139v-505q0 -247 -274 -247q-275 0 -275 247v505h151zM453 850l-46 -63l-199 101l66 81z" />
    <glyph glyph-name="Uacute" unicode="&#xda;" horiz-adv-x="722" 
d="M237 739v-514q0 -116 132 -116q127 0 127 116v514h139v-505q0 -247 -274 -247q-275 0 -275 247v505h151zM448 969l65 -81l-198 -101l-46 63z" />
    <glyph glyph-name="Ucircumflex" unicode="&#xdb;" horiz-adv-x="722" 
d="M237 739v-514q0 -116 132 -116q127 0 127 116v514h139v-505q0 -247 -274 -247q-275 0 -275 247v505h151zM324 969h73l135 -125l-60 -57l-111 89l-111 -89l-61 57z" />
    <glyph glyph-name="Udieresis" unicode="&#xdc;" horiz-adv-x="722" 
d="M237 739v-514q0 -116 132 -116q127 0 127 116v514h139v-505q0 -247 -274 -247q-275 0 -275 247v505h151zM520 942v-136h-123v136h123zM325 942v-136h-124v136h124z" />
    <glyph glyph-name="Yacute" unicode="&#xdd;" horiz-adv-x="647" 
d="M193 739v-98q0 -25 10 -41l75 -129q16 -27 27.5 -48t19.5 -39h4q8 17 19.5 38.5t27.5 48.5l75 130q11 20 11 40v98h139v-93q0 -44 -37 -108l-166 -285v-253h-146v250l-175 288q-16 26 -23 53t-7 55v93h146zM410 969l65 -81l-198 -101l-46 63z" />
    <glyph glyph-name="Thorn" unicode="&#xde;" horiz-adv-x="605" 
d="M236 739v-138h114q208 0 208 -234q0 -229 -208 -229h-114v-138h-146v739h146zM236 260h125q61 0 61 107q0 111 -61 111h-125v-218z" />
    <glyph glyph-name="germandbls" unicode="&#xdf;" horiz-adv-x="642" 
d="M228 0h-138v558q0 62 15.5 105.5t46.5 71t76 40t104 12.5q112 0 167 -46t55 -134v-53q0 -26 -7 -46.5t-19 -35.5t-27 -25.5t-31 -17.5q51 -20 81.5 -64.5t30.5 -113.5v-77q0 -50 -18 -83t-46.5 -53.5t-64 -29t-70.5 -8.5h-79v103h19q67 0 94 21.5t27 77.5v68q0 16 -5 31
t-16.5 27t-30.5 19t-47 7h-41v112h41q71 0 71 97v38q0 40 -23.5 57t-61.5 17q-28 0 -47.5 -3.5t-32 -15.5t-18 -35t-5.5 -62v-559z" />
    <glyph glyph-name="agrave" unicode="&#xe0;" horiz-adv-x="583" 
d="M77 394q3 31 13.5 60t34.5 51.5t65 36t106 13.5q60 0 100.5 -11.5t65 -35.5t35.5 -61.5t11 -89.5v-320q-21 -10 -44 -18.5t-53.5 -14.5t-71 -9.5t-95.5 -3.5q-91 0 -136 39t-45 127v23q0 84 45.5 118t135.5 34q60 0 89 -4.5t41 -9.5v59q0 35 -19.5 53t-62.5 18
q-38 0 -61 -12.5t-28 -41.5h-126zM200 139q0 -45 43 -45q54 0 85.5 3t45.5 8v121q-18 6 -47.5 9.5t-83.5 3.5q-43 0 -43 -39v-61zM384 657l-46 -63l-199 101l66 81z" />
    <glyph glyph-name="aacute" unicode="&#xe1;" horiz-adv-x="583" 
d="M77 394q3 31 13.5 60t34.5 51.5t65 36t106 13.5q60 0 100.5 -11.5t65 -35.5t35.5 -61.5t11 -89.5v-320q-21 -10 -44 -18.5t-53.5 -14.5t-71 -9.5t-95.5 -3.5q-91 0 -136 39t-45 127v23q0 84 45.5 118t135.5 34q60 0 89 -4.5t41 -9.5v59q0 35 -19.5 53t-62.5 18
q-38 0 -61 -12.5t-28 -41.5h-126zM200 139q0 -45 43 -45q54 0 85.5 3t45.5 8v121q-18 6 -47.5 9.5t-83.5 3.5q-43 0 -43 -39v-61zM378 776l65 -81l-198 -101l-46 63z" />
    <glyph glyph-name="acircumflex" unicode="&#xe2;" horiz-adv-x="583" 
d="M77 394q3 31 13.5 60t34.5 51.5t65 36t106 13.5q60 0 100.5 -11.5t65 -35.5t35.5 -61.5t11 -89.5v-320q-21 -10 -44 -18.5t-53.5 -14.5t-71 -9.5t-95.5 -3.5q-91 0 -136 39t-45 127v23q0 84 45.5 118t135.5 34q60 0 89 -4.5t41 -9.5v59q0 35 -19.5 53t-62.5 18
q-38 0 -61 -12.5t-28 -41.5h-126zM200 139q0 -45 43 -45q54 0 85.5 3t45.5 8v121q-18 6 -47.5 9.5t-83.5 3.5q-43 0 -43 -39v-61zM255 776h73l135 -125l-60 -57l-111 89l-111 -89l-61 57z" />
    <glyph glyph-name="atilde" unicode="&#xe3;" horiz-adv-x="583" 
d="M77 394q3 31 13.5 60t34.5 51.5t65 36t106 13.5q60 0 100.5 -11.5t65 -35.5t35.5 -61.5t11 -89.5v-320q-21 -10 -44 -18.5t-53.5 -14.5t-71 -9.5t-95.5 -3.5q-91 0 -136 39t-45 127v23q0 84 45.5 118t135.5 34q60 0 89 -4.5t41 -9.5v59q0 35 -19.5 53t-62.5 18
q-38 0 -61 -12.5t-28 -41.5h-126zM200 139q0 -45 43 -45q54 0 85.5 3t45.5 8v121q-18 6 -47.5 9.5t-83.5 3.5q-43 0 -43 -39v-61zM115 654q4 15 12.5 30.5t22 28t31.5 20t41 7.5t40.5 -5t32.5 -11.5t28.5 -11.5t27.5 -5q17 0 31 9.5t20 31.5l66 -37q-4 -15 -13 -30.5
t-22.5 -28t-31.5 -20t-40 -7.5q-24 0 -42 5t-33.5 11.5t-30.5 11.5t-33 5q-26 0 -39 -42z" />
    <glyph glyph-name="adieresis" unicode="&#xe4;" horiz-adv-x="583" 
d="M77 394q3 31 13.5 60t34.5 51.5t65 36t106 13.5q60 0 100.5 -11.5t65 -35.5t35.5 -61.5t11 -89.5v-320q-21 -10 -44 -18.5t-53.5 -14.5t-71 -9.5t-95.5 -3.5q-91 0 -136 39t-45 127v23q0 84 45.5 118t135.5 34q60 0 89 -4.5t41 -9.5v59q0 35 -19.5 53t-62.5 18
q-38 0 -61 -12.5t-28 -41.5h-126zM200 139q0 -45 43 -45q54 0 85.5 3t45.5 8v121q-18 6 -47.5 9.5t-83.5 3.5q-43 0 -43 -39v-61zM451 749v-136h-123v136h123zM256 749v-136h-124v136h124z" />
    <glyph glyph-name="aring" unicode="&#xe5;" horiz-adv-x="583" 
d="M77 394q3 31 13.5 60t34.5 51.5t65 36t106 13.5q60 0 100.5 -11.5t65 -35.5t35.5 -61.5t11 -89.5v-320q-21 -10 -44 -18.5t-53.5 -14.5t-71 -9.5t-95.5 -3.5q-91 0 -136 39t-45 127v23q0 84 45.5 118t135.5 34q60 0 89 -4.5t41 -9.5v59q0 35 -19.5 53t-62.5 18
q-38 0 -61 -12.5t-28 -41.5h-126zM200 139q0 -45 43 -45q54 0 85.5 3t45.5 8v121q-18 6 -47.5 9.5t-83.5 3.5q-43 0 -43 -39v-61zM161 721q0 58 29.5 92t100.5 34t101 -34t30 -92q0 -57 -30 -91t-101 -34t-100.5 34t-29.5 91zM291 790q-33 0 -48 -18.5t-15 -50.5
q0 -31 15 -49t48 -18q35 0 48.5 18t13.5 49q0 32 -13.5 50.5t-48.5 18.5z" />
    <glyph glyph-name="ae" unicode="&#xe6;" horiz-adv-x="888" 
d="M77 394q3 31 13.5 60t34.5 51.5t65 36t106 13.5q57 0 100 -17.5t60 -42.5q21 31 63 45.5t88 14.5q218 0 218 -242v-67h-315v-28q0 -55 23.5 -85t71.5 -30q49 0 67.5 18t20.5 44h125q-11 -83 -60 -128.5t-148 -45.5q-43 0 -82 13.5t-63 33.5q-14 -9 -32 -17.5t-43.5 -15
t-61 -10.5t-84.5 -4q-91 0 -136 39t-45 127v23q0 84 45.5 118t135.5 34q60 0 89 -4.5t41 -9.5v59q0 35 -19.5 53t-62.5 18q-38 0 -61 -12.5t-28 -41.5h-126zM200 139q0 -45 43 -45q54 0 85.5 3t45.5 8v121q-18 6 -47.5 9.5t-83.5 3.5q-43 0 -43 -39v-61zM697 341
q0 52 -20 78t-72 26t-73 -25t-21 -79h186z" />
    <glyph glyph-name="ccedilla" unicode="&#xe7;" horiz-adv-x="575" 
d="M60 315q0 240 235 240q54 0 93.5 -11t66 -35.5t40.5 -63.5t17 -95h-124q0 48 -27 71t-66 23q-48 0 -72.5 -30.5t-24.5 -85.5v-110q0 -55 24.5 -85t75.5 -30q35 0 60 22.5t30 61.5h124q-5 -82 -45.5 -133t-127.5 -61q-21 -100 -88 -189l-59 41q33 73 42 151
q-174 28 -174 235v84z" />
    <glyph glyph-name="egrave" unicode="&#xe8;" horiz-adv-x="573" 
d="M60 315q0 120 63.5 180t171.5 60q218 0 218 -242v-67h-315v-28q0 -55 23.5 -85t71.5 -30q49 0 67.5 18t20.5 44h125q-11 -83 -60 -128.5t-148 -45.5q-238 0 -238 240v84zM385 341q0 52 -20 78t-72 26t-73 -25t-21 -79h186zM379 657l-46 -63l-199 101l66 81z" />
    <glyph glyph-name="eacute" unicode="&#xe9;" horiz-adv-x="573" 
d="M60 315q0 120 63.5 180t171.5 60q218 0 218 -242v-67h-315v-28q0 -55 23.5 -85t71.5 -30q49 0 67.5 18t20.5 44h125q-11 -83 -60 -128.5t-148 -45.5q-238 0 -238 240v84zM385 341q0 52 -20 78t-72 26t-73 -25t-21 -79h186zM373 776l65 -81l-198 -101l-46 63z" />
    <glyph glyph-name="ecircumflex" unicode="&#xea;" horiz-adv-x="573" 
d="M60 315q0 120 63.5 180t171.5 60q218 0 218 -242v-67h-315v-28q0 -55 23.5 -85t71.5 -30q49 0 67.5 18t20.5 44h125q-11 -83 -60 -128.5t-148 -45.5q-238 0 -238 240v84zM385 341q0 52 -20 78t-72 26t-73 -25t-21 -79h186zM250 776h73l135 -125l-60 -57l-111 89l-111 -89
l-61 57z" />
    <glyph glyph-name="edieresis" unicode="&#xeb;" horiz-adv-x="573" 
d="M60 315q0 120 63.5 180t171.5 60q218 0 218 -242v-67h-315v-28q0 -55 23.5 -85t71.5 -30q49 0 67.5 18t20.5 44h125q-11 -83 -60 -128.5t-148 -45.5q-238 0 -238 240v84zM385 341q0 52 -20 78t-72 26t-73 -25t-21 -79h186zM446 749v-136h-123v136h123zM251 749v-136h-124
v136h124z" />
    <glyph glyph-name="igrave" unicode="&#xec;" horiz-adv-x="298" 
d="M218 546v-546h-138v546h138zM243 657l-46 -63l-199 101l66 81z" />
    <glyph glyph-name="iacute" unicode="&#xed;" horiz-adv-x="298" 
d="M218 546v-546h-138v546h138zM237 776l65 -81l-198 -101l-46 63z" />
    <glyph glyph-name="icircumflex" unicode="&#xee;" horiz-adv-x="298" 
d="M218 546v-546h-138v546h138zM114 776h73l135 -125l-60 -57l-111 89l-111 -89l-61 57z" />
    <glyph glyph-name="idieresis" unicode="&#xef;" horiz-adv-x="298" 
d="M218 546v-546h-138v546h138zM310 749v-136h-123v136h123zM115 749v-136h-124v136h124z" />
    <glyph glyph-name="eth" unicode="&#xf0;" horiz-adv-x="592" 
d="M219 787q52 0 99 -14.5t85 -40.5l57 55l52 -51l-56 -53q35 -42 55.5 -97t20.5 -122v-232q0 -240 -234 -240q-238 0 -238 240v18q0 60 14 103.5t38.5 71.5t58 41.5t72.5 13.5q64 0 97 -12.5t54 -34.5v48q0 32 -8.5 60.5t-23.5 52.5l-62 -58l-48 53l59 56q-26 17 -59 27
t-75 10zM198 219q0 -111 100 -111q96 0 96 111v44q0 55 -24 78t-75 23q-48 0 -72.5 -23t-24.5 -78v-44z" />
    <glyph glyph-name="ntilde" unicode="&#xf1;" horiz-adv-x="613" 
d="M218 0h-138v503q80 29 150.5 40.5t146.5 11.5q156 0 156 -151v-404h-138v417q0 21 -18 21q-90 0 -159 -15v-423zM130 654q4 15 12.5 30.5t22 28t31.5 20t41 7.5t40.5 -5t32.5 -11.5t28.5 -11.5t27.5 -5q17 0 31 9.5t20 31.5l66 -37q-4 -15 -13 -30.5t-22.5 -28t-31.5 -20
t-40 -7.5q-24 0 -42 5t-33.5 11.5t-30.5 11.5t-33 5q-26 0 -39 -42z" />
    <glyph glyph-name="ograve" unicode="&#xf2;" horiz-adv-x="592" 
d="M60 315q0 240 235 240q237 0 237 -240v-84q0 -240 -234 -240q-238 0 -238 240v84zM198 218q0 -111 100 -111q96 0 96 111v110q0 110 -99 110q-97 0 -97 -110v-110zM388 657l-46 -63l-199 101l66 81z" />
    <glyph glyph-name="oacute" unicode="&#xf3;" horiz-adv-x="592" 
d="M60 315q0 240 235 240q237 0 237 -240v-84q0 -240 -234 -240q-238 0 -238 240v84zM198 218q0 -111 100 -111q96 0 96 111v110q0 110 -99 110q-97 0 -97 -110v-110zM383 776l65 -81l-198 -101l-46 63z" />
    <glyph glyph-name="ocircumflex" unicode="&#xf4;" horiz-adv-x="592" 
d="M60 315q0 240 235 240q237 0 237 -240v-84q0 -240 -234 -240q-238 0 -238 240v84zM198 218q0 -111 100 -111q96 0 96 111v110q0 110 -99 110q-97 0 -97 -110v-110zM259 776h73l135 -125l-60 -57l-111 89l-111 -89l-61 57z" />
    <glyph glyph-name="otilde" unicode="&#xf5;" horiz-adv-x="592" 
d="M60 315q0 240 235 240q237 0 237 -240v-84q0 -240 -234 -240q-238 0 -238 240v84zM198 218q0 -111 100 -111q96 0 96 111v110q0 110 -99 110q-97 0 -97 -110v-110zM119 654q4 15 12.5 30.5t22 28t31.5 20t41 7.5t40.5 -5t32.5 -11.5t28.5 -11.5t27.5 -5q17 0 31 9.5
t20 31.5l66 -37q-4 -15 -13 -30.5t-22.5 -28t-31.5 -20t-40 -7.5q-24 0 -42 5t-33.5 11.5t-30.5 11.5t-33 5q-26 0 -39 -42z" />
    <glyph glyph-name="odieresis" unicode="&#xf6;" horiz-adv-x="592" 
d="M60 315q0 240 235 240q237 0 237 -240v-84q0 -240 -234 -240q-238 0 -238 240v84zM198 218q0 -111 100 -111q96 0 96 111v110q0 110 -99 110q-97 0 -97 -110v-110zM455 749v-136h-123v136h123zM260 749v-136h-124v136h124z" />
    <glyph glyph-name="divide" unicode="&#xf7;" horiz-adv-x="645" 
d="M555 419v-118h-465v118h465zM392 229v-145h-132v145h132zM392 639v-145h-132v145h132z" />
    <glyph glyph-name="oslash" unicode="&#xf8;" horiz-adv-x="592" 
d="M497 606l-42 -96q77 -59 77 -195v-84q0 -240 -234 -240q-36 0 -66 6l-27 -62h-101l41 94q-85 58 -85 202v84q0 240 235 240q20 0 38.5 -2t35.5 -5l26 58h102zM198 218q0 -35 11 -62l121 277q-20 5 -35 5q-97 0 -97 -110v-110zM271 109q6 -1 12.5 -1.5t14.5 -0.5
q96 0 96 111v110q0 27 -6 48z" />
    <glyph glyph-name="ugrave" unicode="&#xf9;" horiz-adv-x="605" 
d="M220 546v-417q0 -22 17 -22q46 0 82.5 4t68.5 12v423h137v-504q-40 -14 -76 -24t-71 -16t-70 -8.5t-73 -2.5q-155 0 -155 151v404h140zM395 657l-46 -63l-199 101l66 81z" />
    <glyph glyph-name="uacute" unicode="&#xfa;" horiz-adv-x="605" 
d="M220 546v-417q0 -22 17 -22q46 0 82.5 4t68.5 12v423h137v-504q-40 -14 -76 -24t-71 -16t-70 -8.5t-73 -2.5q-155 0 -155 151v404h140zM389 776l65 -81l-198 -101l-46 63z" />
    <glyph glyph-name="ucircumflex" unicode="&#xfb;" horiz-adv-x="605" 
d="M220 546v-417q0 -22 17 -22q46 0 82.5 4t68.5 12v423h137v-504q-40 -14 -76 -24t-71 -16t-70 -8.5t-73 -2.5q-155 0 -155 151v404h140zM266 776h73l135 -125l-60 -57l-111 89l-111 -89l-61 57z" />
    <glyph glyph-name="udieresis" unicode="&#xfc;" horiz-adv-x="605" 
d="M220 546v-417q0 -22 17 -22q46 0 82.5 4t68.5 12v423h137v-504q-40 -14 -76 -24t-71 -16t-70 -8.5t-73 -2.5q-155 0 -155 151v404h140zM462 749v-136h-123v136h123zM267 749v-136h-124v136h124z" />
    <glyph glyph-name="yacute" unicode="&#xfd;" horiz-adv-x="608" 
d="M218 546v-432q0 -11 6.5 -16.5t23.5 -5.5q37 0 66 1.5t56 8.5q13 45 21 91.5t8 94.5v258h137v-256q0 -75 -16 -146t-42 -135.5t-60 -122t-70 -105.5h-161q21 24 41 49.5t38.5 51.5t33.5 50.5t25 45.5q-38 -3 -90 -3q-155 0 -155 152v419h138zM391 776l65 -81l-198 -101
l-46 63z" />
    <glyph glyph-name="thorn" unicode="&#xfe;" horiz-adv-x="588" 
d="M218 787v-265q29 13 68 22.5t82 9.5q160 0 160 -151v-188q0 -223 -218 -223q-28 0 -50.5 2t-41.5 7v-201h-138v941zM218 124q20 -8 43.5 -12t48.5 -4q80 0 80 94v214q0 21 -22 21q-42 0 -79 -7t-71 -20v-286z" />
    <glyph glyph-name="ydieresis" unicode="&#xff;" horiz-adv-x="608" 
d="M218 546v-432q0 -11 6.5 -16.5t23.5 -5.5q37 0 66 1.5t56 8.5q13 45 21 91.5t8 94.5v258h137v-256q0 -75 -16 -146t-42 -135.5t-60 -122t-70 -105.5h-161q21 24 41 49.5t38.5 51.5t33.5 50.5t25 45.5q-38 -3 -90 -3q-155 0 -155 152v419h138zM463 749v-136h-123v136h123z
M268 749v-136h-124v136h124z" />
    <glyph glyph-name="dotlessi" unicode="&#x131;" horiz-adv-x="298" 
d="M218 546v-546h-138v546h138z" />
    <glyph glyph-name="Lslash" unicode="&#x141;" horiz-adv-x="547" 
d="M236 739v-295l80 46l52 -94l-132 -79v-194h265v-123h-411v739h146z" />
    <glyph glyph-name="lslash" unicode="&#x142;" horiz-adv-x="300" 
d="M218 787v-300l24 14l58 -79l-82 -47v-375h-137v295l-24 -13l-58 80l82 48v332z" />
    <glyph glyph-name="OE" unicode="&#x152;" horiz-adv-x="931" 
d="M868 739v-123h-263v-164h240v-123h-240v-206h263v-123h-395v37q-22 -23 -62 -36t-97 -13q-114 0 -176.5 60.5t-62.5 186.5v270q0 125 62.5 186t176.5 61q64 0 101.5 -13t57.5 -36v36h395zM221 226q0 -116 119 -116t119 116v288q0 115 -119 115t-119 -115v-288z" />
    <glyph glyph-name="oe" unicode="&#x153;" horiz-adv-x="907" 
d="M60 315q0 240 235 240q57 0 100.5 -17t69.5 -46q27 29 70 46t94 17q218 0 218 -242v-67h-315v-28q0 -55 23.5 -85t71.5 -30q49 0 67.5 18t20.5 44h125q-11 -83 -60 -128.5t-148 -45.5q-55 0 -99 16.5t-69 43.5q-26 -27 -69 -43.5t-97 -16.5q-238 0 -238 240v84zM198 218
q0 -111 100 -111q96 0 96 111v110q0 110 -99 110q-97 0 -97 -110v-110zM719 341q0 52 -20 78t-72 26t-73 -25t-21 -79h186z" />
    <glyph glyph-name="Scaron" unicode="&#x160;" horiz-adv-x="670" 
d="M408 433q36 -12 70.5 -28.5t62 -41.5t44 -61.5t16.5 -88.5q0 -48 -17.5 -89.5t-52.5 -72t-88 -47.5t-123 -17q-128 0 -187 56t-62 163h126q8 -55 41.5 -76t93.5 -21q63 0 96 29t33 68q0 27 -8.5 44.5t-22 29.5t-31.5 19.5t-37 13.5l-99 32q-38 12 -70 30.5t-55.5 44.5
t-37 60t-13.5 78q0 97 62 146t180 49q66 0 112 -11t75 -36t43 -66t16 -101h-123q0 30 -10 48t-26.5 27.5t-38.5 12.5t-46 3q-109 0 -109 -70q0 -22 7 -37t18.5 -25t25 -16.5t25.5 -10.5zM224 969l111 -90l111 90l60 -56l-135 -126h-73l-135 126z" />
    <glyph glyph-name="scaron" unicode="&#x161;" horiz-adv-x="549" 
d="M175 167q2 -34 26 -51.5t64 -17.5q27 0 45.5 5.5t29 14.5t15 19.5t4.5 21.5q0 23 -15.5 35t-53.5 23l-90 27q-29 9 -54 22t-43.5 32t-29.5 45t-11 59q0 78 56 115.5t158 37.5q55 0 92.5 -11t61 -32t34 -51.5t12.5 -69.5h-119q-2 32 -22 46t-60 14q-25 0 -40 -4
t-23.5 -10.5t-11 -15t-2.5 -16.5q0 -13 5.5 -21.5t13.5 -14t17.5 -8.5t17.5 -5l91 -27q27 -8 54 -19.5t48.5 -30t34.5 -45.5t13 -66q0 -38 -13 -70t-41 -56t-72 -37.5t-105 -13.5q-58 0 -98 13.5t-65 37.5t-36.5 56t-12.5 69h125zM164 776l111 -90l111 90l60 -56l-135 -126
h-73l-135 126z" />
    <glyph glyph-name="Ydieresis" unicode="&#x178;" horiz-adv-x="647" 
d="M193 739v-98q0 -25 10 -41l75 -129q16 -27 27.5 -48t19.5 -39h4q8 17 19.5 38.5t27.5 48.5l75 130q11 20 11 40v98h139v-93q0 -44 -37 -108l-166 -285v-253h-146v250l-175 288q-16 26 -23 53t-7 55v93h146zM483 942v-136h-123v136h123zM288 942v-136h-124v136h124z" />
    <glyph glyph-name="Zcaron" unicode="&#x17d;" horiz-adv-x="611" 
d="M553 739v-96l-267 -412q-29 -45 -46.5 -69.5t-29.5 -38.5l2 -3q30 3 140 3h215v-123h-517v98l270 421q25 39 39 60t29 39l-2 3q-19 -2 -51.5 -3.5t-80.5 -1.5h-192v123h491zM195 969l111 -90l111 90l60 -56l-135 -126h-73l-135 126z" />
    <glyph glyph-name="zcaron" unicode="&#x17e;" horiz-adv-x="552" 
d="M488 546v-86l-192 -246q-18 -24 -30.5 -39.5t-21 -25.5t-14.5 -16t-11 -10l1 -3q16 3 45.5 4t89.5 1h144v-125h-447v91l185 245q19 25 32 42t21.5 27.5t14 16.5t10.5 9l-2 3q-6 -2 -13.5 -3t-20 -1h-32h-49.5h-142v116h432zM165 776l111 -90l111 90l60 -56l-135 -126h-73
l-135 126z" />
    <glyph glyph-name="circumflex" unicode="&#x2c6;" horiz-adv-x="523" 
d="M225 776h73l135 -125l-60 -57l-111 89l-111 -89l-61 57z" />
    <glyph glyph-name="caron" unicode="&#x2c7;" horiz-adv-x="523" 
d="M151 776l111 -90l111 90l60 -56l-135 -126h-73l-135 126z" />
    <glyph glyph-name="ring" unicode="&#x2da;" horiz-adv-x="441" 
d="M90 650q0 58 29.5 92t100.5 34t101 -34t30 -92q0 -57 -30 -91t-101 -34t-100.5 34t-29.5 91zM220 719q-33 0 -48 -18.5t-15 -50.5q0 -31 15 -49t48 -18q35 0 48.5 18t13.5 49q0 32 -13.5 50.5t-48.5 18.5z" />
    <glyph glyph-name="tilde" unicode="&#x2dc;" horiz-adv-x="533" 
d="M90 654q4 15 12.5 30.5t22 28t31.5 20t41 7.5t40.5 -5t32.5 -11.5t28.5 -11.5t27.5 -5q17 0 31 9.5t20 31.5l66 -37q-4 -15 -13 -30.5t-22.5 -28t-31.5 -20t-40 -7.5q-24 0 -42 5t-33.5 11.5t-30.5 11.5t-33 5q-26 0 -39 -42z" />
    <glyph glyph-name="endash" unicode="&#x2013;" horiz-adv-x="591" 
d="M579 343v-105h-570v105h570z" />
    <glyph glyph-name="emdash" unicode="&#x2014;" horiz-adv-x="1027" 
d="M1012 343v-105h-995v105h995z" />
    <glyph glyph-name="quoteleft" unicode="&#x2018;" horiz-adv-x="193" 
d="M150 756l16 -262l-89 -23l-50 285h123z" />
    <glyph glyph-name="quoteright" unicode="&#x2019;" horiz-adv-x="193" 
d="M166 756l-50 -285l-89 23l15 262h124z" />
    <glyph glyph-name="quotesinglbase" unicode="&#x201a;" horiz-adv-x="193" 
d="M166 145l-49 -285l-90 23l15 262h124z" />
    <glyph glyph-name="quotedblleft" unicode="&#x201c;" horiz-adv-x="364" 
d="M321 756l16 -262l-90 -23l-48 285h122zM150 756l16 -262l-88 -23l-51 285h123z" />
    <glyph glyph-name="quotedblright" unicode="&#x201d;" horiz-adv-x="364" 
d="M166 756l-49 -285l-90 23l16 262h123zM337 756l-50 -285l-88 23l15 262h123z" />
    <glyph glyph-name="quotedblbase" unicode="&#x201e;" horiz-adv-x="364" 
d="M166 145l-49 -285l-90 23l16 262h123zM337 145l-50 -285l-88 23l15 262h123z" />
    <glyph glyph-name="dagger" unicode="&#x2020;" horiz-adv-x="578" 
d="M234 614v125h117v-125h170v-95h-170v-519h-117v519h-177v95h177z" />
    <glyph glyph-name="daggerdbl" unicode="&#x2021;" horiz-adv-x="579" 
d="M234 614v125h116v-125h172v-95h-172v-312h172v-96h-172v-111h-116v111h-177v96h177v312h-177v95h177z" />
    <glyph glyph-name="bullet" unicode="&#x2022;" horiz-adv-x="469" 
d="M63 353q0 35 12.5 64t35.5 50t54.5 32.5t69.5 11.5q35 0 66 -11.5t54.5 -32.5t37 -50t13.5 -64q0 -33 -13.5 -62t-37 -50t-54.5 -33t-66 -12q-37 0 -68.5 12t-54.5 33t-36 50t-13 62z" />
    <glyph glyph-name="ellipsis" unicode="&#x2026;" horiz-adv-x="890" 
d="M247 168v-168h-157v168h157zM524 168v-168h-157v168h157zM800 168v-168h-157v168h157z" />
    <glyph glyph-name="perthousand" unicode="&#x2030;" horiz-adv-x="1128" 
d="M765 208q0 138 135 138q138 0 138 -138v-79q0 -138 -136 -138q-137 0 -137 138v79zM865 125q0 -47 37 -47q35 0 35 47v88q0 46 -37 46q-35 0 -35 -46v-88zM90 608q0 138 135 138q138 0 138 -138v-79q0 -138 -136 -138q-137 0 -137 138v79zM190 525q0 -47 37 -47
q35 0 35 47v88q0 46 -37 46q-35 0 -35 -46v-88zM634 739l-339 -739h-113l338 739h114zM455 208q0 138 135 138q138 0 138 -138v-79q0 -138 -136 -138q-137 0 -137 138v79zM556 125q0 -47 36 -47t36 47v88q0 46 -38 46q-34 0 -34 -46v-88z" />
    <glyph glyph-name="guilsinglleft" unicode="&#x2039;" horiz-adv-x="410" 
d="M320 458l-118 -154l118 -154l-69 -67l-161 221l160 220z" />
    <glyph glyph-name="guilsinglright" unicode="&#x203a;" horiz-adv-x="410" 
d="M160 524l160 -220l-161 -221l-69 67l118 154l-118 153z" />
    <glyph glyph-name="fraction" unicode="&#x2044;" horiz-adv-x="255" 
d="M438 732l-512 -732h-101l510 732h103z" />
    <glyph glyph-name="Euro" unicode="&#x20ac;" horiz-adv-x="597" 
d="M565 732l-44 -107h-172q-73 0 -110 -28.5t-37 -94.5v-81h259l-44 -99h-215v-104q0 -67 32 -95t105 -28q60 0 105 12.5t80 42.5l32 -106q-32 -25 -83.5 -41t-133.5 -16q-268 0 -268 241v94h-60l38 99h22v71q0 240 268 240h226z" />
    <glyph glyph-name="uni2117" unicode="&#x2117;" horiz-adv-x="839" 
d="M423 746q341 0 341 -380q0 -195 -84 -287t-257 -92q-171 0 -259.5 93t-88.5 286q0 194 87 287t261 93zM423 670q-52 0 -97 -14.5t-78.5 -49t-53 -92.5t-19.5 -146q0 -90 19.5 -149t53 -94t78.5 -49.5t97 -14.5t96.5 15t76.5 50.5t50.5 94.5t18.5 147q0 87 -18.5 145
t-50.5 93t-76.5 49.5t-96.5 14.5zM462 579q125 0 125 -144q0 -141 -125 -141h-81v-146h-95v431h176zM381 372h88q29 0 29 63q0 67 -29 67h-88v-130z" />
    <glyph glyph-name="trademark" unicode="&#x2122;" horiz-adv-x="1023" 
d="M370 739v-72h-121v-414h-81v414h-124v72h326zM545 739l120 -300l34 -93l35 93l119 300h80v-486h-79v194l4 111l-120 -305h-70l-127 307l4 -113v-194h-80v486h80z" />
    <glyph glyph-name="minus" unicode="&#x2212;" horiz-adv-x="641" 
d="M551 409v-93h-461v93h461z" />
    <glyph glyph-name="NULL" horiz-adv-x="532" 
 />
    </font>
</defs>
</svg>
