<?xml version="1.0" standalone="no"?>
<!DOCTYPE svg PUBLIC "-//W3C//DTD SVG 1.1//EN" "http://www.w3.org/Graphics/SVG/1.1/DTD/svg11.dtd" >
<svg xmlns="http://www.w3.org/2000/svg" xmlns:xlink="http://www.w3.org/1999/xlink" version="1.1">
<metadata>
Created by FontForge 20161003 at Thu Jul 18 10:16:36 2019
 By www-data
(c) Ray Larabie 2006. Do not distribute. Report piracy to piracy@typodermic.com. Visit www.typodermic.com and www.larabiefonts.com
</metadata>
<defs>
<font id="MilibusLight" horiz-adv-x="661" >
  <font-face 
    font-family="MilibusLight"
    font-weight="300"
    font-stretch="normal"
    units-per-em="1000"
    panose-1="2 0 5 3 4 0 0 2 0 4"
    ascent="788"
    descent="-212"
    x-height="546"
    cap-height="739"
    bbox="-175 -220 1018 973"
    underline-thickness="50"
    underline-position="-150"
    unicode-range="U+0020-2212"
  />
<missing-glyph horiz-adv-x="518" 
d="M518 739v-739h-518v739h518zM55 56h412v631h-412v-631z" />
    <glyph glyph-name=".notdef" horiz-adv-x="518" 
d="M518 739v-739h-518v739h518zM55 56h412v631h-412v-631z" />
    <glyph glyph-name=".null" horiz-adv-x="0" 
 />
    <glyph glyph-name="nonmarkingreturn" horiz-adv-x="0" 
 />
    <glyph glyph-name="space" unicode=" " horiz-adv-x="354" 
 />
    <glyph glyph-name="exclam" unicode="!" horiz-adv-x="284" 
d="M204 753l-20 -506h-84l-20 506h124zM188 115v-115h-91v115h91z" />
    <glyph glyph-name="quotedbl" unicode="&#x22;" horiz-adv-x="314" 
d="M287 753l-20 -301h-63l-21 301h104zM131 753l-20 -301h-63l-21 301h104z" />
    <glyph glyph-name="numbersign" unicode="#" horiz-adv-x="559" 
d="M274 739l-30 -193h131l27 193h89l-27 -193h65v-79h-77l-25 -191h76v-79h-87l-28 -197h-90l29 197h-130l-27 -197h-89l28 197h-79v79h89l26 191h-90v79h101l29 193h89zM209 276h129l26 191h-129z" />
    <glyph glyph-name="dollar" unicode="$" horiz-adv-x="557" 
d="M319 739v-83q87 -6 123.5 -44.5t37.5 -114.5h-86q0 47 -31 65.5t-78 18.5q-108 0 -108 -63q0 -20 7 -33t17.5 -21.5t24 -13l25.5 -8.5l91 -28q29 -9 56.5 -20.5t48.5 -29.5t34 -43.5t13 -62.5q0 -65 -41 -110.5t-134 -56.5v-91h-72v89q-91 5 -135 46.5t-49 119.5h92
q4 -42 32.5 -66t86.5 -24q34 0 58 7t39 18.5t22 26.5t7 31q0 23 -7 37.5t-19 24.5t-28.5 16t-35.5 12l-83 25q-30 9 -56 22t-45.5 31.5t-31 42.5t-11.5 56q0 63 43 98t121 42v84h72z" />
    <glyph glyph-name="percent" unicode="%" horiz-adv-x="901" 
d="M63 590q0 163 155 163q158 0 158 -163v-62q0 -163 -156 -163q-157 0 -157 163v62zM137 524q0 -89 83 -89q82 0 82 89v71q0 88 -84 88q-81 0 -81 -88v-71zM525 216q0 163 155 163q158 0 158 -163v-62q0 -163 -156 -163q-157 0 -157 163v62zM599 150q0 -89 83 -89
q82 0 82 89v71q0 88 -84 88q-81 0 -81 -88v-71zM752 739l-516 -739h-93l515 739h94z" />
    <glyph glyph-name="ampersand" unicode="&#x26;" horiz-adv-x="774" 
d="M152 625q0 60 36.5 94t111.5 34q70 0 107 -29t37 -78v-56q0 -34 -23.5 -66.5t-60.5 -61.5l-25 -20l209 -228q48 66 55 142l84 -28q-8 -51 -28.5 -96.5t-50.5 -83.5l136 -148h-116l-78 86q-55 -45 -124 -70t-147 -25q-56 0 -97 14.5t-67.5 39t-39.5 56.5t-13 67v50
q0 57 27 108.5t78 86.5l54 38q-27 31 -46 63t-19 67v44zM217 351q-32 -25 -47.5 -60.5t-15.5 -69.5v-41q0 -56 35 -84t83 -28q60 0 115 22.5t100 60.5l-217 241zM243 588q0 -21 9.5 -44t30.5 -46l15 11q27 20 42 36.5t16 39.5v32q0 55 -55 55q-26 0 -42 -13t-16 -41v-30z
" />
    <glyph glyph-name="quotesingle" unicode="'" horiz-adv-x="158" 
d="M131 753l-19 -301h-64l-21 301h104z" />
    <glyph glyph-name="parenleft" unicode="(" horiz-adv-x="340" 
d="M277 705q-67 -30 -95 -100t-28 -164v-324q0 -95 28 -164.5t95 -99.5l-38 -72q-39 16 -71 42.5t-55.5 68.5t-36.5 102t-13 143v284q0 83 13 143t36.5 102t55.5 68.5t71 42.5z" />
    <glyph glyph-name="parenright" unicode=")" horiz-adv-x="340" 
d="M101 777q39 -16 71 -42.5t55.5 -68.5t36.5 -102t13 -143v-284q0 -83 -13 -143t-36.5 -102t-55.5 -68.5t-71 -42.5l-38 72q67 30 95 99.5t28 164.5v324q0 94 -28 164t-95 100z" />
    <glyph glyph-name="asterisk" unicode="*" horiz-adv-x="561" 
d="M248 605l-20 134h107l-20 -135l126 59l30 -92l-136 -27l92 -100l-86 -63l-60 119l-68 -116l-82 61l96 96l-137 33l33 90z" />
    <glyph glyph-name="plus" unicode="+" horiz-adv-x="628" 
d="M274 404v183h85v-183h179v-76h-179v-178h-85v178h-184v76h184z" />
    <glyph glyph-name="comma" unicode="," horiz-adv-x="262" 
d="M199 130l-63 -236l-71 10l27 226h107z" />
    <glyph glyph-name="hyphen" unicode="-" horiz-adv-x="396" 
d="M341 328v-72h-286v72h286z" />
    <glyph glyph-name="period" unicode="." horiz-adv-x="268" 
d="M188 130v-130h-108v130h108z" />
    <glyph glyph-name="slash" unicode="/" horiz-adv-x="465" 
d="M446 739l-352 -818h-87l353 818h86z" />
    <glyph glyph-name="zero" unicode="0" horiz-adv-x="636" 
d="M75 514q0 239 243 239t243 -239v-288q0 -239 -243 -239t-243 239v288zM171 216q0 -148 147 -148t147 148v308q0 148 -147 148t-147 -148v-308z" />
    <glyph glyph-name="one" unicode="1" horiz-adv-x="393" 
d="M252 739h61v-739h-96v627l-152 -77l-44 73z" />
    <glyph glyph-name="two" unicode="2" horiz-adv-x="600" 
d="M74 543q1 46 14.5 84.5t41.5 66.5t71 43.5t103 15.5q112 0 166 -48t54 -139q0 -54 -25 -106t-64 -93q-36 -38 -79 -67.5t-79.5 -59.5t-61.5 -63t-25 -76v-20h338v-81h-437v65q0 69 25 118t62.5 86.5t81 68t81 63.5t62.5 72.5t25 94.5q0 48 -27.5 76t-98.5 28
q-69 0 -101.5 -31.5t-34.5 -97.5h-92z" />
    <glyph glyph-name="three" unicode="3" horiz-adv-x="606" 
d="M72 543q1 46 13.5 84.5t39.5 66.5t69 43.5t102 15.5q112 0 161 -50t49 -153q0 -66 -22 -99t-57 -51q19 -5 38.5 -20.5t34.5 -40t24.5 -59t9.5 -77.5q0 -56 -16.5 -97t-47.5 -67.5t-75.5 -39t-100.5 -12.5q-120 0 -175 53.5t-57 145.5h92q2 -66 35.5 -92t102.5 -26
q72 0 109 31.5t37 103.5q0 40 -9.5 67.5t-26.5 43.5t-41 23t-52 7h-76v80h71q54 0 80 34.5t26 91.5q0 31 -5 54t-17.5 38t-35 22.5t-58.5 7.5q-69 0 -98.5 -31.5t-31.5 -97.5h-92z" />
    <glyph glyph-name="four" unicode="4" horiz-adv-x="547" 
d="M457 739v-533h60v-81h-60v-125h-96v125h-321v72l328 542h89zM134 206h227v379z" />
    <glyph glyph-name="five" unicode="5" horiz-adv-x="613" 
d="M527 739v-81h-326l-14 -208q17 8 53 12t82 4q44 0 84.5 -9.5t71 -33t48.5 -63t18 -99.5v-58q0 -56 -16.5 -97t-47.5 -67.5t-75.5 -39t-100.5 -12.5q-120 0 -175 53.5t-57 145.5h92q2 -66 35.5 -92t102.5 -26q72 0 109 31.5t37 103.5v46q0 45 -10.5 72t-29 41.5t-43 19
t-52.5 4.5q-34 0 -58.5 -2.5t-42.5 -6t-31.5 -9t-25.5 -11.5l-68 23l23 359h417z" />
    <glyph glyph-name="six" unicode="6" horiz-adv-x="636" 
d="M171 402q27 29 67.5 39t105.5 10q103 0 160 -50t57 -159v-36q0 -219 -243 -219t-243 219v312q0 121 61 178t179 57q64 0 108.5 -15.5t71.5 -43.5t39.5 -66.5t13.5 -84.5h-92q-2 66 -34 97.5t-105 31.5q-80 0 -113 -37.5t-33 -116.5v-116zM171 196q0 -128 147 -128
t147 128v56q0 64 -36 91t-111 27t-111 -27t-36 -91v-56z" />
    <glyph glyph-name="seven" unicode="7" horiz-adv-x="538" 
d="M498 739v-67l-265 -672h-105l274 658h-361v81h457z" />
    <glyph glyph-name="eight" unicode="8" horiz-adv-x="636" 
d="M92 564q0 189 226 189t226 -189v-32q0 -96 -69 -138q86 -45 86 -160v-38q0 -209 -243 -209t-243 209v38q0 115 85 160q-68 42 -68 138v32zM171 186q0 -118 147 -118t147 118v58q0 118 -147 118t-147 -118v-58zM188 522q0 -98 130 -98t130 98v52q0 98 -130 98t-130 -98
v-52z" />
    <glyph glyph-name="nine" unicode="9" horiz-adv-x="616" 
d="M75 544q0 209 233 209t233 -209v-318q0 -115 -53.5 -177t-177.5 -62q-63 0 -107 14.5t-71.5 41t-40 63t-13.5 80.5h92q2 -67 35.5 -92.5t102.5 -25.5q75 0 106 36t31 112v90q-24 -26 -59 -38t-92 -12q-219 0 -219 209v79zM171 455q0 -118 137 -118q36 0 62 9.5t42.5 24.5
t24.5 35t8 41v107q0 118 -137 118t-137 -118v-99z" />
    <glyph glyph-name="colon" unicode=":" horiz-adv-x="287" 
d="M197 130v-130h-107v130h107zM197 556v-131h-107v131h107z" />
    <glyph glyph-name="semicolon" unicode=";" horiz-adv-x="301" 
d="M216 556v-131h-107v131h107zM211 130l-63 -236l-71 10l32 226h102z" />
    <glyph glyph-name="less" unicode="&#x3c;" horiz-adv-x="518" 
d="M457 599v-107l-275 -134l275 -134v-106l-402 201v78z" />
    <glyph glyph-name="equal" unicode="=" horiz-adv-x="654" 
d="M564 325v-99h-474v99h474zM564 527v-100h-474v100h474z" />
    <glyph glyph-name="greater" unicode="&#x3e;" horiz-adv-x="533" 
d="M465 397v-78l-402 -201v106l275 134l-275 134v107z" />
    <glyph glyph-name="question" unicode="?" horiz-adv-x="548" 
d="M52 569q1 37 14.5 70.5t41 58.5t71 40t103.5 15q109 0 164.5 -40t55.5 -112q0 -44 -15.5 -75.5t-38.5 -56t-49.5 -44.5t-49.5 -41.5t-38.5 -47t-15.5 -60.5q0 -33 10 -54h-87q-17 32 -17 68q0 40 15 70t38 53t49.5 42.5t49.5 40.5t38 45t15 56q0 40 -28 57.5t-98 17.5
q-69 0 -102 -28.5t-34 -74.5h-92zM318 115v-115h-91v115h91z" />
    <glyph glyph-name="at" unicode="@" horiz-adv-x="700" 
d="M159 289q0 -73 11 -119.5t40.5 -73.5t81.5 -37t135 -10q61 0 114 10t89 36l50 -58q-32 -20 -61 -32.5t-58 -19t-60.5 -8.5t-68.5 -2q-116 0 -186 20t-108 59t-50.5 95t-12.5 128v171q0 79 10.5 140.5t44 103.5t95.5 63.5t166 21.5q67 0 110 -18t67 -51.5t33 -81t9 -106.5
v-335h-193q-157 0 -157 127v107q0 146 171 146q71 0 98 -28v35q0 27 -7 51t-23.5 42t-43 28.5t-64.5 10.5q-70 0 -115 -11t-71 -40.5t-36 -80.5t-10 -132v-151zM347 331q0 -74 80 -74h102v185q-33 51 -97 51q-85 0 -85 -83v-79z" />
    <glyph glyph-name="A" unicode="A" 
d="M373 739l203 -452q28 -62 28 -141v-146h-97v140h-355v-140h-95v146q0 79 28 141l203 452h85zM328 631q-9 -28 -20 -56.5t-22 -55.5l-126 -298h339l-126 298q-11 27 -22 55.5t-19 56.5h-4z" />
    <glyph glyph-name="B" unicode="B" horiz-adv-x="634" 
d="M329 739q180 0 180 -150v-78q0 -66 -44 -104q48 -14 77 -47.5t29 -90.5v-105q0 -164 -222 -164h-259v739h239zM186 81h173q119 0 119 90v89q0 83 -105 83h-187v-262zM186 421h139q91 0 91 95v67q0 75 -83 75h-147v-237z" />
    <glyph glyph-name="C" unicode="C" horiz-adv-x="664" 
d="M171 216q0 -148 167 -148q149 0 165 118h96q-21 -199 -261 -199q-263 0 -263 239v288q0 239 263 239q245 0 262 -210h-96q-11 129 -166 129q-167 0 -167 -148v-308z" />
    <glyph glyph-name="D" unicode="D" 
d="M343 739q243 0 243 -314v-98q0 -327 -243 -327h-253v739h253zM186 81h157q147 0 147 236v123q0 218 -147 218h-157v-577z" />
    <glyph glyph-name="E" unicode="E" horiz-adv-x="554" 
d="M491 739v-81h-305v-225h280v-81h-280v-271h305v-81h-401v739h401z" />
    <glyph glyph-name="F" unicode="F" horiz-adv-x="525" 
d="M483 739v-81h-297v-241h273v-81h-273v-336h-96v739h393z" />
    <glyph glyph-name="G" unicode="G" horiz-adv-x="675" 
d="M171 216q0 -74 46 -111t154 -37q39 0 64.5 5t40.5 14t21 22t6 28v177h-180v81h276v-245q0 -36 -9.5 -65.5t-33.5 -51.5t-65 -34t-104 -12q-84 0 -143.5 15t-97 45t-54.5 74.5t-17 104.5v288q0 239 263 239q245 0 262 -210h-96q-11 129 -166 129q-167 0 -167 -148v-308z
" />
    <glyph glyph-name="H" unicode="H" horiz-adv-x="655" 
d="M186 739v-314h283v314h96v-739h-96v345h-283v-345h-96v739h96z" />
    <glyph glyph-name="I" unicode="I" horiz-adv-x="276" 
d="M186 739v-739h-96v739h96z" />
    <glyph glyph-name="J" unicode="J" horiz-adv-x="576" 
d="M486 739v-583q0 -169 -216 -169q-212 0 -212 170v51h94v-61q0 -79 118 -79q120 0 120 78v593h96z" />
    <glyph glyph-name="K" unicode="K" horiz-adv-x="655" 
d="M186 739v-311q0 -22 -0.5 -48.5t-1.5 -49.5q11 16 30 38.5t36 42.5l182 216q29 35 29 83v29h96v-19q0 -81 -62 -152l-123 -141l176 -250q51 -72 51 -151v-26h-96v27q0 54 -26 92l-163 245l-74 -87q-14 -17 -29 -31.5t-28 -27.5q3 -32 3 -106v-112h-96v739h96z" />
    <glyph glyph-name="L" unicode="L" horiz-adv-x="515" 
d="M186 739v-658h283v-81h-379v739h96z" />
    <glyph glyph-name="M" unicode="M" horiz-adv-x="890" 
d="M208 739l179 -458q8 -21 24 -66t39 -109h4q15 43 30.5 87.5t32.5 87.5l178 458h105v-739h-93v304q0 61 3 127t10 139h-4q-6 -23 -13.5 -45.5t-17 -49t-22.5 -59t-30 -75.5l-137 -341h-91l-143 342q-19 44 -33.5 78t-25 61t-17.5 49.5t-11 43.5h-4q7 -75 10 -142t3 -128
v-304h-94v739h118z" />
    <glyph glyph-name="N" unicode="N" horiz-adv-x="707" 
d="M209 739l218 -425q29 -57 54.5 -114t52.5 -114h4q-4 42 -6 111.5t-2 148.5v393h87v-739h-125l-207 397q-32 60 -59.5 120.5t-51.5 117.5h-4q4 -69 6 -133.5t2 -127.5v-374h-88v739h119z" />
    <glyph glyph-name="O" unicode="O" horiz-adv-x="676" 
d="M75 514q0 239 263 239t263 -239v-288q0 -239 -263 -239t-263 239v288zM171 216q0 -148 167 -148t167 148v308q0 148 -167 148t-167 -148v-308z" />
    <glyph glyph-name="P" unicode="P" horiz-adv-x="604" 
d="M378 739q192 0 192 -235q0 -230 -192 -230h-192v-274h-96v739h288zM186 355h203q95 0 95 149q0 154 -95 154h-203v-303z" />
    <glyph glyph-name="Q" unicode="Q" horiz-adv-x="676" 
d="M75 514q0 239 263 239t263 -239v-281q0 -183 -158 -226l33 -126h-77l-25 114q-8 0 -18 -0.5t-18 -0.5q-263 0 -263 239v281zM171 218q0 -148 167 -148h17l-34 127h81l24 -114q38 16 58.5 50t20.5 85v306q0 148 -167 148t-167 -148v-306z" />
    <glyph glyph-name="R" unicode="R" horiz-adv-x="647" 
d="M411 739q45 0 77 -15.5t52 -43.5t29 -67t9 -87q0 -109 -33.5 -167.5t-96.5 -74.5l142 -284h-105l-132 274h-167v-274h-96v739h321zM186 355h211q48 0 71.5 43.5t23.5 116.5q0 29 -4.5 55t-14.5 45.5t-26 31t-40 11.5h-221v-303z" />
    <glyph glyph-name="S" unicode="S" horiz-adv-x="654" 
d="M399 414q35 -12 68.5 -27.5t59.5 -39.5t42 -58.5t16 -84.5q0 -47 -16.5 -86.5t-50 -68.5t-84.5 -45.5t-119 -16.5q-112 0 -172 53t-72 153h96q9 -60 44.5 -92.5t102.5 -32.5q46 0 80.5 10.5t57 28t33.5 40.5t11 49q0 36 -10.5 58.5t-28 37.5t-40.5 24t-48 17l-106 35
q-36 12 -67 29t-54 42t-36.5 57t-13.5 74q0 91 60.5 137t172.5 46q125 0 182 -48.5t60 -151.5h-92q-1 33 -12 55.5t-30.5 36.5t-46.5 20.5t-59 6.5q-75 0 -110.5 -26t-35.5 -74q0 -29 9.5 -49t24.5 -33.5t33 -21.5t35 -14z" />
    <glyph glyph-name="T" unicode="T" horiz-adv-x="542" 
d="M515 739v-81h-193v-658h-96v658h-196v81h485z" />
    <glyph glyph-name="U" unicode="U" horiz-adv-x="699" 
d="M184 739v-523q0 -75 43 -111.5t128 -36.5q165 0 165 148v523h92v-513q0 -239 -263 -239t-263 239v513h98z" />
    <glyph glyph-name="V" unicode="V" horiz-adv-x="641" 
d="M154 739v-156q0 -43 23 -101l101 -250l41 -112h6l42 112l101 250q23 58 23 101v156h93v-146q0 -78 -28 -141l-193 -452h-85l-193 452q-29 67 -28 141v146h97z" />
    <glyph glyph-name="W" unicode="W" horiz-adv-x="910" 
d="M154 739v-263q0 -23 4 -46t13 -47l62 -171l30 -92h6l35 92l77 186q30 73 30 150v191h92v-191q0 -38 7 -75.5t23 -74.5l78 -186l34 -92h6l30 92l62 171q9 24 13 47t4 46v263h93v-244q0 -74 -32 -162l-123 -333h-92l-123 288q-9 20 -16.5 47.5t-11.5 47.5q-4 -20 -12 -47.5
t-16 -47.5l-123 -288h-92l-123 333q-32 88 -32 162v244h97z" />
    <glyph glyph-name="X" unicode="X" horiz-adv-x="678" 
d="M165 739v-44q0 -45 22 -70l154 -178l150 178q22 26 22 69v45h94v-32q0 -83 -55 -144l-159 -176l176 -199q58 -67 58 -146v-42h-98v52q0 50 -30 86l-164 197l-163 -197q-31 -37 -31 -86v-52h-94v42q0 80 57 145l180 207l-158 169q-59 62 -59 144v32h98z" />
    <glyph glyph-name="Y" unicode="Y" horiz-adv-x="629" 
d="M143 739v-79q0 -31 15 -56l158 -274l159 274q15 25 15 56v79h93v-74q0 -40 -35 -102l-186 -321v-242h-96v242l-191 321q-28 46 -28 102v74h96z" />
    <glyph glyph-name="Z" unicode="Z" horiz-adv-x="587" 
d="M528 739v-70l-365 -593q33 3 67 4t69 1h244v-81h-493v74l362 588q-22 -2 -45.5 -3t-49.5 -1h-254v81h465z" />
    <glyph glyph-name="bracketleft" unicode="[" horiz-adv-x="302" 
d="M239 777v-77h-86v-841h86v-78h-176v996h176z" />
    <glyph glyph-name="backslash" unicode="\" horiz-adv-x="481" 
d="M107 739l377 -870h-86l-377 870h86z" />
    <glyph glyph-name="bracketright" unicode="]" horiz-adv-x="302" 
d="M239 777v-996h-176v78h86v841h-86v77h176z" />
    <glyph glyph-name="asciicircum" unicode="^" horiz-adv-x="499" 
d="M280 732l192 -413h-124l-98 256h-4l-102 -256h-117l188 413h65z" />
    <glyph glyph-name="underscore" unicode="_" horiz-adv-x="602" 
d="M603 -26v-93h-604v93h604z" />
    <glyph glyph-name="grave" unicode="`" horiz-adv-x="398" 
d="M288 646l-35 -48l-183 117l53 65z" />
    <glyph glyph-name="a" unicode="a" horiz-adv-x="564" 
d="M76 425q6 31 19 55.5t37.5 41t62 25t92.5 8.5q108 0 155 -48t47 -143v-332q-19 -9 -40.5 -16.5t-50.5 -13t-69.5 -8.5t-97.5 -3q-168 0 -168 165v23q0 159 168 159q69 0 108 -5.5t59 -10.5v56q0 51 -25.5 75.5t-85.5 24.5q-57 0 -87.5 -9.5t-36.5 -43.5h-87zM154 142
q0 -74 77 -74q41 0 68.5 1.5t46 4.5t30.5 7t22 9v155q-23 6 -63 11t-104 5q-77 0 -77 -68v-51z" />
    <glyph glyph-name="b" unicode="b" horiz-adv-x="570" 
d="M171 787v-252q80 20 194 20q145 0 145 -140v-253q0 -171 -194 -171q-148 0 -236 30v736zM171 79q12 -3 24.5 -5t29 -3.5t39 -2t52.5 -0.5q103 0 103 80v281q0 49 -54 49q-112 0 -194 -27v-372z" />
    <glyph glyph-name="c" unicode="c" horiz-adv-x="560" 
d="M151 214q0 -146 138 -146q52 0 83.5 22.5t37.5 64.5h85q-11 -81 -61.5 -122.5t-144.5 -41.5q-229 0 -229 237v90q0 237 226 237q49 0 86.5 -9t64 -29.5t41.5 -53.5t19 -82h-84q-1 51 -35.5 74t-91.5 23q-135 0 -135 -146v-118z" />
    <glyph glyph-name="d" unicode="d" horiz-adv-x="586" 
d="M506 787v-766q-45 -15 -100.5 -22.5t-115.5 -7.5q-230 0 -230 223v178q0 163 180 163q66 0 112 -7t63 -15v224zM151 200q0 -132 139 -132q37 0 68 3t57 8v370q-49 29 -175 29q-89 0 -89 -72v-206z" />
    <glyph glyph-name="e" unicode="e" horiz-adv-x="555" 
d="M60 318q0 120 60 178.5t166 58.5q209 0 209 -239v-60h-344v-42q0 -146 138 -146q52 0 80 22.5t33 54.5h85q-6 -35 -20 -63t-38 -48.5t-58.5 -31.5t-81.5 -11q-229 0 -229 237v90zM404 332q0 44 -8 72.5t-23.5 45t-38 22.5t-50.5 6q-133 0 -133 -146h253z" />
    <glyph glyph-name="f" unicode="f" horiz-adv-x="322" 
d="M80 546v93q0 138 140 138q32 0 57 -5t51 -17l-25 -66q-19 8 -36 12t-47 4q-49 0 -49 -52v-107h113v-66h-113v-480h-91v480h-56v66h56z" />
    <glyph glyph-name="g" unicode="g" horiz-adv-x="567" 
d="M57 301q0 254 244 254q97 0 186 -30v-588q0 -156 -184 -156q-95 0 -207 34l25 77q96 -34 182 -34q93 0 93 65v111q-70 -22 -160 -22q-179 0 -179 190v99zM148 188q0 -99 88 -99q73 0 160 29v349q-25 5 -48.5 8t-46.5 3q-153 0 -153 -163v-127z" />
    <glyph glyph-name="h" unicode="h" horiz-adv-x="590" 
d="M171 787v-250q75 18 200 18q139 0 139 -140v-415h-91v429q0 49 -48 49q-121 0 -200 -25v-453h-91v757z" />
    <glyph glyph-name="i" unicode="i" horiz-adv-x="251" 
d="M171 546v-546h-91v546h91zM171 777v-115h-91v115h91z" />
    <glyph glyph-name="j" unicode="j" horiz-adv-x="251" 
d="M171 546v-627q0 -138 -140 -138q-32 0 -57 5t-51 17l25 67q19 -8 36 -12t47 -4q49 0 49 52v640h91zM171 777v-115h-91v115h91z" />
    <glyph glyph-name="k" unicode="k" horiz-adv-x="579" 
d="M171 787v-425v-44.5t-1 -51.5q9 8 27.5 24.5t61.5 52.5l137 114q34 28 34 73v15h91v-16q0 -72 -71 -131l-82 -69l118 -165q24 -34 34 -64t10 -55v-45h-91v32q0 19 -5.5 38t-18.5 37l-113 166l-53 -44q-35 -29 -53 -42t-28 -19q3 -26 3 -81v-87h-91v757z" />
    <glyph glyph-name="l" unicode="l" horiz-adv-x="250" 
d="M170 787v-787h-90v757z" />
    <glyph glyph-name="m" unicode="m" horiz-adv-x="899" 
d="M171 0h-91v507q69 25 137 36.5t138 11.5q35 0 64.5 -12t44.5 -30q43 20 96 31t119 11q140 0 140 -140v-415h-91v429q0 49 -49 49q-60 0 -104.5 -6.5t-79.5 -18.5v-453h-91v429q0 49 -49 49q-60 0 -104.5 -6.5t-79.5 -18.5v-453z" />
    <glyph glyph-name="n" unicode="n" horiz-adv-x="595" 
d="M171 0h-91v507q70 26 142 37t153 11q140 0 140 -140v-415h-91v429q0 49 -49 49q-123 0 -204 -25v-453z" />
    <glyph glyph-name="o" unicode="o" horiz-adv-x="575" 
d="M60 318q0 237 226 237q229 0 229 -237v-90q0 -237 -226 -237q-229 0 -229 237v90zM151 214q0 -146 138 -146q135 0 135 146v118q0 146 -138 146q-135 0 -135 -146v-118z" />
    <glyph glyph-name="p" unicode="p" horiz-adv-x="577" 
d="M171 -219h-91v744q45 15 100.5 22.5t115.5 7.5q221 0 221 -225v-120q0 -219 -209 -219q-43 0 -78.5 5.5t-58.5 16.5v-232zM171 97q29 -14 65 -21.5t72 -7.5q118 0 118 128v148q0 134 -130 134q-37 0 -68 -3t-57 -8v-370z" />
    <glyph glyph-name="q" unicode="q" horiz-adv-x="570" 
d="M60 384q0 171 194 171q49 0 91 -6t73 -14q12 8 32 14t40 6v-774h-91v230q-80 -20 -194 -20q-145 0 -145 140v253zM151 117q0 -49 54 -49q111 0 194 27v372q-12 3 -24.5 5t-29 3.5t-39 2t-52.5 0.5q-103 0 -103 -80v-281z" />
    <glyph glyph-name="r" unicode="r" horiz-adv-x="378" 
d="M171 0h-91v505q46 27 102 38.5t110 11.5q14 0 27 -0.5t23 -1.5v-82q-11 1 -24.5 1.5t-27.5 0.5q-29 0 -60.5 -6.5t-58.5 -17.5v-449z" />
    <glyph glyph-name="s" unicode="s" horiz-adv-x="537" 
d="M142 153q4 -42 32.5 -66t86.5 -24q34 0 58 7t39 18.5t22 26.5t7 31q0 23 -7 37.5t-19 24.5t-28.5 16t-35.5 12l-83 25q-30 9 -56 22t-45.5 31.5t-31 42.5t-11.5 56q0 72 53 107t149 35q106 0 150.5 -38t44.5 -122h-86q0 47 -31 65.5t-78 18.5q-108 0 -108 -63
q0 -20 7 -33t17.5 -21.5t24 -13l25.5 -8.5l91 -28q29 -9 56.5 -20.5t48.5 -29.5t34 -43.5t13 -62.5q0 -36 -12.5 -67t-39.5 -53.5t-69.5 -35.5t-101.5 -13q-103 0 -152.5 40.5t-55.5 125.5h92z" />
    <glyph glyph-name="t" unicode="t" horiz-adv-x="356" 
d="M184 692v-146h117v-66h-117v-365q0 -52 49 -52q30 0 47 4t36 12l25 -66q-18 -10 -42.5 -16t-66.5 -6q-139 0 -139 138v351h-58v66h58v126z" />
    <glyph glyph-name="u" unicode="u" horiz-adv-x="586" 
d="M173 546v-429q0 -49 49 -49q60 0 106.5 6t88.5 19v453h89v-507q-70 -26 -138 -37t-148 -11q-140 0 -140 140v415h93z" />
    <glyph glyph-name="v" unicode="v" horiz-adv-x="547" 
d="M138 546v-128q0 -38 17 -74l118 -235h4l121 235q9 17 12.5 38.5t4.5 47.5v116h86v-129q0 -53 -29 -111l-159 -306h-79l-158 306q-30 57 -30 124v116h92z" />
    <glyph glyph-name="w" unicode="w" horiz-adv-x="834" 
d="M138 546v-150q0 -42 16 -84l85 -221h4l111 251q24 54 24 117v87h84v-87q0 -32 6.5 -61t17.5 -56l109 -251h4l87 221q8 20 12 40.5t4 43.5v150h86v-142q0 -66 -28 -131l-117 -273h-90l-111 241q-7 14 -14 34t-11 38q-4 -18 -11 -38t-14 -34l-111 -241h-90l-117 273
q-28 65 -28 131v142h92z" />
    <glyph glyph-name="x" unicode="x" horiz-adv-x="552" 
d="M155 546v-44q0 -25 14 -41l109 -119l108 119q13 15 13 41v44h88v-45q0 -51 -36 -88l-120 -128l123 -133q48 -53 48 -122v-30h-91v37q0 41 -23 67l-114 130l-113 -130q-23 -26 -23 -66v-38h-88v30q0 69 48 122l127 138l-122 123q-39 39 -39 89v44h91z" />
    <glyph glyph-name="y" unicode="y" horiz-adv-x="590" 
d="M171 546v-429q0 -49 49 -49q60 0 99 3.5t73 14.5q17 52 26.5 106.5t9.5 114.5v239h90v-236q0 -80 -16 -154.5t-42.5 -142t-61 -126t-71.5 -106.5h-102q40 48 78 105t61 114q-17 -4 -53.5 -6.5t-90.5 -2.5q-140 0 -140 140v415h91z" />
    <glyph glyph-name="z" unicode="z" horiz-adv-x="541" 
d="M475 546v-62l-304 -402q39 2 72.5 3.5t61.5 1.5h183v-87h-436v67l307 408q-31 -2 -63 -3.5t-65 -1.5h-173v76h417z" />
    <glyph glyph-name="braceleft" unicode="{" horiz-adv-x="348" 
d="M285 777v-86h-54q-24 0 -32.5 -32.5t-8.5 -107.5v-156q0 -39 -16 -65t-47 -42q37 -20 50 -43t13 -59v-213q0 -38 2 -59.5t6.5 -32t12.5 -12.5t20 -2h54v-87h-63q-21 0 -43 6.5t-39.5 22.5t-28.5 43.5t-11 69.5v225q0 54 -11 75.5t-32 21.5h-26v95h26q25 0 34 23t9 69v218
q0 37 10.5 61.5t27.5 39.5t38.5 21t42.5 6h66z" />
    <glyph glyph-name="bar" unicode="|" horiz-adv-x="276" 
d="M186 763v-945h-96v945h96z" />
    <glyph glyph-name="braceright" unicode="}" horiz-adv-x="353" 
d="M129 777q21 0 42.5 -6t38.5 -21t27.5 -39.5t10.5 -61.5v-218q0 -46 9 -69t34 -23h26v-95h-26q-21 0 -32 -21.5t-11 -75.5v-225q0 -42 -11 -69.5t-28.5 -43.5t-39.5 -22.5t-43 -6.5h-63v87h54q12 0 20 2t12.5 12.5t6.5 32t2 59.5v213q0 36 13 59t50 43q-31 16 -47 42
t-16 65v156q0 75 -8.5 107.5t-32.5 32.5h-54v86h66z" />
    <glyph glyph-name="asciitilde" unicode="~" horiz-adv-x="581" 
d="M51 376q20 27 52 48.5t75 21.5q32 0 60 -9t54 -19.5t51 -19.5t51 -9q10 0 22 2.5t28 13t37.5 32t50.5 60.5v-142q-32 -35 -65 -51.5t-79 -16.5q-27 0 -52.5 9t-50 19.5t-50 19.5t-52.5 9q-11 0 -21 -3.5t-24.5 -14t-35 -30t-51.5 -51.5v131z" />
    <glyph glyph-name="nonbreakingspace" unicode="&#xa0;" horiz-adv-x="452" 
 />
    <glyph glyph-name="exclamdown" unicode="&#xa1;" horiz-adv-x="284" 
d="M184 308l20 -520h-124l20 520h84zM187 555v-115h-91v115h91z" />
    <glyph glyph-name="cent" unicode="&#xa2;" horiz-adv-x="563" 
d="M323 740v-93q82 -5 125.5 -44.5t51.5 -127.5h-84q-1 51 -35.5 74t-91.5 23q-135 0 -135 -146v-118q0 -146 138 -146q52 0 83.5 22.5t37.5 64.5h85q-10 -73 -53 -114.5t-122 -48.5v-86h-73v87q-187 21 -187 235v90q0 216 187 235v93h73z" />
    <glyph glyph-name="sterling" unicode="&#xa3;" horiz-adv-x="569" 
d="M161 381q3 45 3 95q0 148 56 212.5t166 64.5q17 0 39 -3t42 -9t35.5 -13.5t19.5 -16.5l-45 -67q-31 20 -51.5 24t-41.5 4q-23 0 -46 -9.5t-41 -32.5t-29 -60.5t-11 -93.5q0 -50 -3 -95h124v-80h-134q-5 -35 -13 -65t-18.5 -56.5t-23.5 -50.5t-29 -48h369v-81h-484v81h18
q17 24 31 48t25 50.5t19 56.5t14 65h-82v80h91z" />
    <glyph glyph-name="currency" unicode="&#xa4;" horiz-adv-x="550" 
d="M117 586l73 -73q42 17 84 17q40 0 85 -18l75 74l59 -58l-75 -76q17 -29 17 -82q0 -44 -17 -84l75 -74l-60 -59l-74 74q-45 -17 -85 -17q-45 0 -83 16l-75 -74l-59 60l74 74q-17 40 -17 84q0 51 17 83l-74 75zM274 467q-51 0 -72.5 -26.5t-21.5 -68.5q0 -40 22 -69t72 -29
t72.5 29t22.5 69q0 42 -22 68.5t-73 26.5z" />
    <glyph glyph-name="yen" unicode="&#xa5;" horiz-adv-x="544" 
d="M135 739l139 -256l141 256h104l-198 -340v-115h191v-76h-191v-208h-95v208h-191v76h191v115l-199 340h108z" />
    <glyph glyph-name="brokenbar" unicode="&#xa6;" horiz-adv-x="276" 
d="M186 213v-395h-96v395h96zM186 763v-409h-96v409h96z" />
    <glyph glyph-name="section" unicode="&#xa7;" horiz-adv-x="571" 
d="M340 525q26 -9 50.5 -20.5t44 -28t31 -40t11.5 -57.5q0 -38 -17 -70t-46 -51q27 -18 47 -44.5t20 -68.5q0 -34 -11.5 -63t-36 -50t-62.5 -33t-92 -12q-93 0 -138.5 38.5t-50.5 116.5h84q3 -39 28 -61.5t79 -22.5q62 0 88 24t26 54q0 22 -6 35.5t-16.5 22.5t-25.5 14.5
t-33 11.5l-75 24q-27 9 -50.5 21t-41.5 29t-28.5 40t-10.5 53q0 42 25 70.5t62 42.5q-17 8 -33.5 19.5t-29 26.5t-20 33.5t-7.5 40.5q0 66 48 99.5t135 33.5q96 0 136 -36t41 -114h-79q0 44 -27.5 61.5t-70.5 17.5q-99 0 -99 -59q0 -19 6.5 -31t16.5 -19.5t22 -12t23 -8.5z
M328 293q37 8 53 29t16 47q0 22 -9 37.5t-23 26.5t-31.5 18t-34.5 13q-18 -1 -37.5 -4t-36 -11t-27 -22t-10.5 -36q0 -20 6.5 -33t17 -21.5t23 -13t24.5 -8.5z" />
    <glyph glyph-name="dieresis" unicode="&#xa8;" horiz-adv-x="460" 
d="M370 756v-121h-102v121h102zM192 756v-121h-102v121h102z" />
    <glyph glyph-name="copyright" unicode="&#xa9;" horiz-adv-x="834" 
d="M421 753q338 0 338 -384q0 -196 -84 -289t-254 -93q-168 0 -257 94.5t-89 287.5q0 196 87 290t259 94zM421 695q-57 0 -107 -15.5t-86.5 -52.5t-58 -99.5t-21.5 -156.5q0 -96 21.5 -159t58 -100.5t86.5 -53t107 -15.5t106 16t84 54t55 101t20 157q0 93 -20 155t-55 99.5
t-84 53.5t-106 16zM328 331q0 -97 92 -97q71 0 79 57h57q-8 -54 -40.5 -81t-95.5 -27q-152 0 -152 156v61q0 156 150 156q65 0 99.5 -25t39.5 -90h-56q0 34 -23 49t-60 15q-90 0 -90 -97v-77z" />
    <glyph glyph-name="ordfeminine" unicode="&#xaa;" horiz-adv-x="484" 
d="M77 645q5 26 15.5 46.5t29 34t47.5 20.5t71 7q84 0 119 -36.5t35 -109.5v-247q-15 -7 -31.5 -13t-38.5 -10.5t-52.5 -7t-72.5 -2.5q-129 0 -129 128v16q0 123 129 123q45 0 72.5 -2.5t43.5 -5.5v31q0 34 -17.5 50t-57.5 16q-38 0 -59 -7t-25 -31h-79zM150 444
q0 -47 49 -47q27 0 46 1t32.5 2.5t22 4t15.5 5.5v104q-18 5 -46 8t-70 3q-49 0 -49 -43v-38z" />
    <glyph glyph-name="guillemotleft" unicode="&#xab;" horiz-adv-x="615" 
d="M525 458l-118 -154l118 -154l-64 -62l-159 216l159 216zM313 458l-119 -154l119 -154l-65 -62l-158 216l158 216z" />
    <glyph glyph-name="uni00AD" unicode="&#xad;" horiz-adv-x="456" 
d="M366 341v-99h-276v99h276z" />
    <glyph glyph-name="registered" unicode="&#xae;" horiz-adv-x="689" 
d="M348 753q251 0 251 -286q0 -147 -61 -215.5t-190 -68.5q-127 0 -192.5 69.5t-65.5 214.5q0 147 64 216.5t194 69.5zM348 696q-41 0 -76 -11t-60.5 -37t-40.5 -69.5t-15 -109.5q0 -67 15 -111.5t40.5 -70.5t60.5 -37t76 -11q40 0 74 11t58.5 37.5t38.5 71t14 110.5
q0 65 -14 108.5t-38.5 70t-58.5 37.5t-74 11zM383 617q38 0 54 -23.5t16 -61.5q0 -42 -11.5 -64t-33.5 -30l54 -107h-57l-48 100h-49v-100h-50v286h125zM308 476h69q14 0 21 14t7 37q0 19 -5.5 32t-17.5 13h-74v-96z" />
    <glyph glyph-name="degree" unicode="&#xb0;" horiz-adv-x="435" 
d="M217 689q-51 0 -72.5 -26.5t-21.5 -68.5q0 -40 22 -69t72 -29t72.5 29t22.5 69q0 42 -22 68.5t-73 26.5zM217 752q43 0 73.5 -12.5t50 -34t28.5 -51t9 -62.5t-9 -62t-28.5 -51t-50 -34.5t-73.5 -12.5t-73 12.5t-49.5 34.5t-28.5 51t-9 62t9 62.5t28.5 51t49.5 34t73 12.5
z" />
    <glyph glyph-name="twosuperior" unicode="&#xb2;" horiz-adv-x="401" 
d="M90 677q0 49 25.5 79t85.5 30q107 0 107 -92q0 -28 -8.5 -50t-33.5 -45q-18 -17 -38 -31t-36.5 -27.5t-27.5 -28t-11 -32.5v-6h158v-48h-213v37q0 34 11.5 56t30 39.5t41 33t44.5 38.5q29 31 29 65q0 20 -12 31t-42 11q-56 0 -57 -60h-53z" />
    <glyph glyph-name="threesuperior" unicode="&#xb3;" horiz-adv-x="410" 
d="M96 677q2 49 26 79t82 30q57 0 80 -24.5t23 -75.5q0 -26 -10 -42.5t-26 -25.5q18 -8 33.5 -32t15.5 -60q0 -55 -30.5 -80.5t-85.5 -25.5q-58 0 -85 27.5t-29 75.5h54q2 -30 15.5 -42t43.5 -12q31 0 46.5 13.5t15.5 43.5q0 35 -15.5 47t-38.5 12h-42v48h39q23 0 33 15.5
t10 37.5q0 27 -9.5 39t-37.5 12q-30 0 -42 -14t-13 -46h-53z" />
    <glyph glyph-name="acute" unicode="&#xb4;" horiz-adv-x="398" 
d="M275 780l53 -65l-183 -117l-35 48z" />
    <glyph glyph-name="mu" unicode="&#xb5;" horiz-adv-x="610" 
d="M181 546v-449q29 -14 65 -21.5t72 -7.5q118 0 118 128v350h91v-336q0 -219 -209 -219q-43 0 -78.5 5.5t-58.5 16.5v-232h-91v765h91z" />
    <glyph glyph-name="mu" unicode="&#x3bc;" horiz-adv-x="610" 
d="M181 546v-449q29 -14 65 -21.5t72 -7.5q118 0 118 128v350h91v-336q0 -219 -209 -219q-43 0 -78.5 5.5t-58.5 16.5v-232h-91v765h91z" />
    <glyph glyph-name="paragraph" unicode="&#xb6;" horiz-adv-x="591" 
d="M534 739l-44 -89v-846h-94v712h-133v-712h-96v713q-57 11 -83.5 42t-26.5 67q0 23 9 43.5t28 36t48 24.5t70 9h322z" />
    <glyph glyph-name="periodcentered" unicode="&#xb7;" horiz-adv-x="267" 
d="M187 456v-131h-107v131h107z" />
    <glyph glyph-name="cedilla" unicode="&#xb8;" horiz-adv-x="311" 
d="M221 14q-15 -116 -87 -211l-44 28q40 90 45 183h86z" />
    <glyph glyph-name="onesuperior" unicode="&#xb9;" horiz-adv-x="328" 
d="M203 781h35v-355h-56v291l-67 -34l-25 43z" />
    <glyph glyph-name="ordmasculine" unicode="&#xba;" horiz-adv-x="526" 
d="M90 573q0 180 171 180q175 0 175 -180v-65q0 -181 -172 -181q-174 0 -174 181v65zM170 497q0 -100 94 -100q92 0 92 100v87q0 99 -95 99q-91 0 -91 -99v-87z" />
    <glyph glyph-name="guillemotright" unicode="&#xbb;" horiz-adv-x="615" 
d="M155 520l158 -216l-158 -216l-65 62l118 154l-118 154zM367 520l158 -216l-158 -216l-65 62l118 154l-118 154z" />
    <glyph glyph-name="onequarter" unicode="&#xbc;" horiz-adv-x="853" 
d="M737 739l-516 -739h-73l515 739h74zM215 754h38v-392h-61v321l-74 -38l-28 48zM733 390v-272h30v-54h-30v-64h-62v64h-163v44l169 282h56zM572 118h99v166z" />
    <glyph glyph-name="onehalf" unicode="&#xbd;" horiz-adv-x="905" 
d="M737 739l-516 -739h-73l515 739h74zM215 754h38v-392h-61v321l-74 -38l-28 48zM571 277q0 52 29 86t94 34q61 0 89.5 -26.5t28.5 -75.5q0 -29 -9.5 -54.5t-36.5 -50.5q-20 -18 -42 -33.5t-40.5 -30.5t-30.5 -31.5t-12 -35.5v-6h174v-53h-235v40q0 39 13 63.5t33.5 43
t45 36t48.5 42.5q16 17 24 34t8 38q0 22 -13 34t-46 12q-62 0 -63 -66h-59z" />
    <glyph glyph-name="threequarters" unicode="&#xbe;" horiz-adv-x="884" 
d="M768 739l-516 -739h-73l515 739h74zM764 390v-272h30v-54h-30v-64h-62v64h-163v44l169 282h56zM603 118h99v166zM96 639q1 26 8 48t21 38t36.5 25t54.5 9q61 0 87 -26.5t26 -83.5q0 -29 -11 -47.5t-28 -28.5q20 -8 37 -34.5t17 -66.5q0 -61 -34 -89t-94 -28q-66 0 -95 30
t-31 84h59q2 -33 17 -46.5t48 -13.5q35 0 52 15t17 48q0 38 -17 51.5t-43 13.5h-46v53h43q25 0 36.5 17t11.5 42q0 29 -10.5 42.5t-41.5 13.5q-33 0 -46.5 -15.5t-14.5 -50.5h-59z" />
    <glyph glyph-name="questiondown" unicode="&#xbf;" horiz-adv-x="530" 
d="M329 333q17 -32 17 -68q0 -40 -15 -70t-38 -53t-49.5 -42.5t-49.5 -40.5t-38 -45t-15 -56q0 -40 28 -57.5t98 -17.5q69 0 102 28.5t34 74.5h92q-1 -37 -14.5 -70.5t-41.5 -58.5t-71 -40t-103 -15q-109 0 -164.5 40t-55.5 112q0 44 15.5 75.5t38.5 56t49.5 44.5t49.5 41.5
t38.5 47t15.5 60.5q0 33 -10 54h87zM320 555v-115h-91v115h91z" />
    <glyph glyph-name="Agrave" unicode="&#xc0;" 
d="M373 739l203 -452q28 -62 28 -141v-146h-97v140h-355v-140h-95v146q0 79 28 141l203 452h85zM328 631q-9 -28 -20 -56.5t-22 -55.5l-126 -298h339l-126 298q-11 27 -22 55.5t-19 56.5h-4zM419 839l-35 -48l-183 117l53 65z" />
    <glyph glyph-name="Aacute" unicode="&#xc1;" 
d="M373 739l203 -452q28 -62 28 -141v-146h-97v140h-355v-140h-95v146q0 79 28 141l203 452h85zM328 631q-9 -28 -20 -56.5t-22 -55.5l-126 -298h339l-126 298q-11 27 -22 55.5t-19 56.5h-4zM406 973l53 -65l-183 -117l-35 48z" />
    <glyph glyph-name="Acircumflex" unicode="&#xc2;" 
d="M373 739l203 -452q28 -62 28 -141v-146h-97v140h-355v-140h-95v146q0 79 28 141l203 452h85zM328 631q-9 -28 -20 -56.5t-22 -55.5l-126 -298h339l-126 298q-11 27 -22 55.5t-19 56.5h-4zM360 969l130 -140l-45 -42l-115 112l-115 -112l-45 42l130 140h60z" />
    <glyph glyph-name="Atilde" unicode="&#xc3;" 
d="M373 739l203 -452q28 -62 28 -141v-146h-97v140h-355v-140h-95v146q0 79 28 141l203 452h85zM328 631q-9 -28 -20 -56.5t-22 -55.5l-126 -298h339l-126 298q-11 27 -22 55.5t-19 56.5h-4zM163 849q7 27 31 51.5t64 24.5q30 0 47 -5.5t30.5 -12t28 -12t38.5 -5.5
q12 0 24 12t17 29l54 -30q-7 -27 -31 -51.5t-64 -24.5q-30 0 -47 5.5t-30.5 12t-28 12t-38.5 5.5q-12 0 -24 -12t-17 -29z" />
    <glyph glyph-name="Adieresis" unicode="&#xc4;" 
d="M373 739l203 -452q28 -62 28 -141v-146h-97v140h-355v-140h-95v146q0 79 28 141l203 452h85zM328 631q-9 -28 -20 -56.5t-22 -55.5l-126 -298h339l-126 298q-11 27 -22 55.5t-19 56.5h-4zM470 949v-121h-102v121h102zM292 949v-121h-102v121h102z" />
    <glyph glyph-name="Aring" unicode="&#xc5;" 
d="M576 287q28 -62 28 -141v-146h-97v140h-355v-140h-95v146q0 79 28 141l200 447q-42 11 -58.5 40.5t-16.5 74.5q0 55 27.5 87.5t92.5 32.5t92.5 -32.5t27.5 -87.5q0 -45 -16.5 -74.5t-58.5 -40.5zM328 631q-11 -27 -20.5 -55.5t-21.5 -56.5l-126 -298h339l-126 298
q-11 27 -20.5 55.5t-20.5 56.5h-4zM261 849q0 -32 15.5 -50.5t53.5 -18.5t53.5 18.5t15.5 50.5t-15.5 50.5t-53.5 18.5t-53.5 -18.5t-15.5 -50.5z" />
    <glyph glyph-name="AE" unicode="&#xc6;" horiz-adv-x="876" 
d="M813 739v-81h-305v-225h280v-81h-280v-271h305v-81h-401v140h-259v-140h-96v146q0 79 28 141l203 452h525zM287 519l-126 -298h251v437h-73z" />
    <glyph glyph-name="Ccedilla" unicode="&#xc7;" horiz-adv-x="664" 
d="M171 216q0 -148 167 -148q149 0 165 118h96q-19 -175 -206 -196q-18 -99 -83 -187l-44 28q34 75 43 157q-234 13 -234 238v288q0 239 263 239q245 0 262 -210h-96q-11 129 -166 129q-167 0 -167 -148v-308z" />
    <glyph glyph-name="Egrave" unicode="&#xc8;" horiz-adv-x="554" 
d="M491 739v-81h-305v-225h280v-81h-280v-271h305v-81h-401v739h401zM366 839l-35 -48l-183 117l53 65z" />
    <glyph glyph-name="Eacute" unicode="&#xc9;" horiz-adv-x="554" 
d="M491 739v-81h-305v-225h280v-81h-280v-271h305v-81h-401v739h401zM353 973l53 -65l-183 -117l-35 48z" />
    <glyph glyph-name="Ecircumflex" unicode="&#xca;" horiz-adv-x="554" 
d="M491 739v-81h-305v-225h280v-81h-280v-271h305v-81h-401v739h401zM307 969l130 -140l-45 -42l-115 112l-115 -112l-45 42l130 140h60z" />
    <glyph glyph-name="Edieresis" unicode="&#xcb;" horiz-adv-x="554" 
d="M491 739v-81h-305v-225h280v-81h-280v-271h305v-81h-401v739h401zM417 949v-121h-102v121h102zM239 949v-121h-102v121h102z" />
    <glyph glyph-name="Igrave" unicode="&#xcc;" horiz-adv-x="276" 
d="M186 739v-739h-96v739h96zM228 839l-35 -48l-183 117l53 65z" />
    <glyph glyph-name="Iacute" unicode="&#xcd;" horiz-adv-x="276" 
d="M186 739v-739h-96v739h96zM215 973l53 -65l-183 -117l-35 48z" />
    <glyph glyph-name="Icircumflex" unicode="&#xce;" horiz-adv-x="276" 
d="M186 739v-739h-96v739h96zM169 969l130 -140l-45 -42l-115 112l-115 -112l-45 42l130 140h60z" />
    <glyph glyph-name="Idieresis" unicode="&#xcf;" horiz-adv-x="276" 
d="M186 739v-739h-96v739h96zM279 949v-121h-102v121h102zM101 949v-121h-102v121h102z" />
    <glyph glyph-name="Eth" unicode="&#xd0;" horiz-adv-x="641" 
d="M323 739q243 0 243 -314v-98q0 -327 -243 -327h-233v352h-60v81h60v306h233zM186 433h152v-81h-152v-271h137q147 0 147 236v123q0 218 -147 218h-137v-225z" />
    <glyph glyph-name="Ntilde" unicode="&#xd1;" horiz-adv-x="707" 
d="M209 739l218 -425q29 -57 54.5 -114t52.5 -114h4q-4 42 -6 111.5t-2 148.5v393h87v-739h-125l-207 397q-32 60 -59.5 120.5t-51.5 117.5h-4q4 -69 6 -133.5t2 -127.5v-374h-88v739h119zM186 849q7 27 31 51.5t64 24.5q30 0 47 -5.5t30.5 -12t28 -12t38.5 -5.5q12 0 24 12
t17 29l54 -30q-7 -27 -31 -51.5t-64 -24.5q-30 0 -47 5.5t-30.5 12t-28 12t-38.5 5.5q-12 0 -24 -12t-17 -29z" />
    <glyph glyph-name="Ograve" unicode="&#xd2;" horiz-adv-x="676" 
d="M75 514q0 239 263 239t263 -239v-288q0 -239 -263 -239t-263 239v288zM171 216q0 -148 167 -148t167 148v308q0 148 -167 148t-167 -148v-308zM427 839l-35 -48l-183 117l53 65z" />
    <glyph glyph-name="Oacute" unicode="&#xd3;" horiz-adv-x="676" 
d="M75 514q0 239 263 239t263 -239v-288q0 -239 -263 -239t-263 239v288zM171 216q0 -148 167 -148t167 148v308q0 148 -167 148t-167 -148v-308zM414 973l53 -65l-183 -117l-35 48z" />
    <glyph glyph-name="Ocircumflex" unicode="&#xd4;" horiz-adv-x="676" 
d="M75 514q0 239 263 239t263 -239v-288q0 -239 -263 -239t-263 239v288zM171 216q0 -148 167 -148t167 148v308q0 148 -167 148t-167 -148v-308zM368 969l130 -140l-45 -42l-115 112l-115 -112l-45 42l130 140h60z" />
    <glyph glyph-name="Otilde" unicode="&#xd5;" horiz-adv-x="676" 
d="M75 514q0 239 263 239t263 -239v-288q0 -239 -263 -239t-263 239v288zM171 216q0 -148 167 -148t167 148v308q0 148 -167 148t-167 -148v-308zM171 849q7 27 31 51.5t64 24.5q30 0 47 -5.5t30.5 -12t28 -12t38.5 -5.5q12 0 24 12t17 29l54 -30q-7 -27 -31 -51.5
t-64 -24.5q-30 0 -47 5.5t-30.5 12t-28 12t-38.5 5.5q-12 0 -24 -12t-17 -29z" />
    <glyph glyph-name="Odieresis" unicode="&#xd6;" horiz-adv-x="676" 
d="M75 514q0 239 263 239t263 -239v-288q0 -239 -263 -239t-263 239v288zM171 216q0 -148 167 -148t167 148v308q0 148 -167 148t-167 -148v-308zM478 949v-121h-102v121h102zM300 949v-121h-102v121h102z" />
    <glyph glyph-name="multiply" unicode="&#xd7;" horiz-adv-x="573" 
d="M284 422l130 129l60 -60l-130 -129l127 -127l-54 -54l-126 127l-126 -126l-60 60l125 126l-130 130l54 54z" />
    <glyph glyph-name="Oslash" unicode="&#xd8;" horiz-adv-x="676" 
d="M568 791l-40 -92q73 -60 73 -185v-288q0 -239 -263 -239q-61 0 -112 14l-28 -65h-89l43 101q-77 59 -77 189v288q0 239 263 239q67 0 118 -16l23 54h89zM171 216q0 -58 24 -92l231 533q-36 15 -88 15q-167 0 -167 -148v-308zM256 80q34 -12 82 -12q167 0 167 148v308
q0 49 -20 84z" />
    <glyph glyph-name="Ugrave" unicode="&#xd9;" horiz-adv-x="699" 
d="M184 739v-523q0 -75 43 -111.5t128 -36.5q165 0 165 148v523h92v-513q0 -239 -263 -239t-263 239v513h98zM438 839l-35 -48l-183 117l53 65z" />
    <glyph glyph-name="Uacute" unicode="&#xda;" horiz-adv-x="699" 
d="M184 739v-523q0 -75 43 -111.5t128 -36.5q165 0 165 148v523h92v-513q0 -239 -263 -239t-263 239v513h98zM425 973l53 -65l-183 -117l-35 48z" />
    <glyph glyph-name="Ucircumflex" unicode="&#xdb;" horiz-adv-x="699" 
d="M184 739v-523q0 -75 43 -111.5t128 -36.5q165 0 165 148v523h92v-513q0 -239 -263 -239t-263 239v513h98zM379 969l130 -140l-45 -42l-115 112l-115 -112l-45 42l130 140h60z" />
    <glyph glyph-name="Udieresis" unicode="&#xdc;" horiz-adv-x="699" 
d="M184 739v-523q0 -75 43 -111.5t128 -36.5q165 0 165 148v523h92v-513q0 -239 -263 -239t-263 239v513h98zM489 949v-121h-102v121h102zM311 949v-121h-102v121h102z" />
    <glyph glyph-name="Yacute" unicode="&#xdd;" horiz-adv-x="629" 
d="M143 739v-79q0 -31 15 -56l158 -274l159 274q15 25 15 56v79h93v-74q0 -40 -35 -102l-186 -321v-242h-96v242l-191 321q-28 46 -28 102v74h96zM390 973l53 -65l-183 -117l-35 48z" />
    <glyph glyph-name="Thorn" unicode="&#xde;" horiz-adv-x="577" 
d="M186 739v-147h152q192 0 192 -225q0 -220 -192 -220h-152v-147h-96v739h96zM186 228h163q95 0 95 139q0 144 -95 144h-163v-283z" />
    <glyph glyph-name="germandbls" unicode="&#xdf;" horiz-adv-x="597" 
d="M180 0h-90v568q0 114 49.5 164t163.5 50q107 0 156 -44t49 -117v-66q0 -21 -6.5 -41t-18 -37.5t-28 -31t-35.5 -20.5q23 -8 44 -22.5t37.5 -35.5t26 -47.5t9.5 -58.5v-72q0 -57 -18 -94.5t-49.5 -59.5t-73.5 -31t-89 -9h-3v76h4q79 0 110 32.5t31 95.5v47
q0 70 -36.5 100.5t-108.5 30.5v77h8q25 0 45.5 9.5t34 25t21 35.5t7.5 40v49q0 29 -7.5 47t-22 28.5t-36.5 14t-51 3.5q-33 0 -56.5 -5t-38.5 -19.5t-21.5 -41.5t-6.5 -71v-569z" />
    <glyph glyph-name="agrave" unicode="&#xe0;" horiz-adv-x="564" 
d="M76 425q6 31 19 55.5t37.5 41t62 25t92.5 8.5q108 0 155 -48t47 -143v-332q-19 -9 -40.5 -16.5t-50.5 -13t-69.5 -8.5t-97.5 -3q-168 0 -168 165v23q0 159 168 159q69 0 108 -5.5t59 -10.5v56q0 51 -25.5 75.5t-85.5 24.5q-57 0 -87.5 -9.5t-36.5 -43.5h-87zM154 142
q0 -74 77 -74q41 0 68.5 1.5t46 4.5t30.5 7t22 9v155q-23 6 -63 11t-104 5q-77 0 -77 -68v-51zM371 646l-35 -48l-183 117l53 65z" />
    <glyph glyph-name="aacute" unicode="&#xe1;" horiz-adv-x="564" 
d="M76 425q6 31 19 55.5t37.5 41t62 25t92.5 8.5q108 0 155 -48t47 -143v-332q-19 -9 -40.5 -16.5t-50.5 -13t-69.5 -8.5t-97.5 -3q-168 0 -168 165v23q0 159 168 159q69 0 108 -5.5t59 -10.5v56q0 51 -25.5 75.5t-85.5 24.5q-57 0 -87.5 -9.5t-36.5 -43.5h-87zM154 142
q0 -74 77 -74q41 0 68.5 1.5t46 4.5t30.5 7t22 9v155q-23 6 -63 11t-104 5q-77 0 -77 -68v-51zM358 780l53 -65l-183 -117l-35 48z" />
    <glyph glyph-name="acircumflex" unicode="&#xe2;" horiz-adv-x="564" 
d="M76 425q6 31 19 55.5t37.5 41t62 25t92.5 8.5q108 0 155 -48t47 -143v-332q-19 -9 -40.5 -16.5t-50.5 -13t-69.5 -8.5t-97.5 -3q-168 0 -168 165v23q0 159 168 159q69 0 108 -5.5t59 -10.5v56q0 51 -25.5 75.5t-85.5 24.5q-57 0 -87.5 -9.5t-36.5 -43.5h-87zM154 142
q0 -74 77 -74q41 0 68.5 1.5t46 4.5t30.5 7t22 9v155q-23 6 -63 11t-104 5q-77 0 -77 -68v-51zM312 776l130 -140l-45 -42l-115 112l-115 -112l-45 42l130 140h60z" />
    <glyph glyph-name="atilde" unicode="&#xe3;" horiz-adv-x="564" 
d="M76 425q6 31 19 55.5t37.5 41t62 25t92.5 8.5q108 0 155 -48t47 -143v-332q-19 -9 -40.5 -16.5t-50.5 -13t-69.5 -8.5t-97.5 -3q-168 0 -168 165v23q0 159 168 159q69 0 108 -5.5t59 -10.5v56q0 51 -25.5 75.5t-85.5 24.5q-57 0 -87.5 -9.5t-36.5 -43.5h-87zM154 142
q0 -74 77 -74q41 0 68.5 1.5t46 4.5t30.5 7t22 9v155q-23 6 -63 11t-104 5q-77 0 -77 -68v-51zM115 656q7 27 31 51.5t64 24.5q30 0 47 -5.5t30.5 -12t28 -12t38.5 -5.5q12 0 24 12t17 29l54 -30q-7 -27 -31 -51.5t-64 -24.5q-30 0 -47 5.5t-30.5 12t-28 12t-38.5 5.5
q-12 0 -24 -12t-17 -29z" />
    <glyph glyph-name="adieresis" unicode="&#xe4;" horiz-adv-x="564" 
d="M76 425q6 31 19 55.5t37.5 41t62 25t92.5 8.5q108 0 155 -48t47 -143v-332q-19 -9 -40.5 -16.5t-50.5 -13t-69.5 -8.5t-97.5 -3q-168 0 -168 165v23q0 159 168 159q69 0 108 -5.5t59 -10.5v56q0 51 -25.5 75.5t-85.5 24.5q-57 0 -87.5 -9.5t-36.5 -43.5h-87zM154 142
q0 -74 77 -74q41 0 68.5 1.5t46 4.5t30.5 7t22 9v155q-23 6 -63 11t-104 5q-77 0 -77 -68v-51zM422 756v-121h-102v121h102zM244 756v-121h-102v121h102z" />
    <glyph glyph-name="aring" unicode="&#xe5;" horiz-adv-x="564" 
d="M76 425q6 31 19 55.5t37.5 41t62 25t92.5 8.5q108 0 155 -48t47 -143v-332q-19 -9 -40.5 -16.5t-50.5 -13t-69.5 -8.5t-97.5 -3q-168 0 -168 165v23q0 159 168 159q69 0 108 -5.5t59 -10.5v56q0 51 -25.5 75.5t-85.5 24.5q-57 0 -87.5 -9.5t-36.5 -43.5h-87zM154 142
q0 -74 77 -74q41 0 68.5 1.5t46 4.5t30.5 7t22 9v155q-23 6 -63 11t-104 5q-77 0 -77 -68v-51zM162 717q0 55 27.5 87.5t92.5 32.5t92.5 -32.5t27.5 -87.5t-27.5 -87.5t-92.5 -32.5t-92.5 32.5t-27.5 87.5zM213 717q0 -32 15.5 -50.5t53.5 -18.5t53.5 18.5t15.5 50.5
t-15.5 50.5t-53.5 18.5t-53.5 -18.5t-15.5 -50.5z" />
    <glyph glyph-name="ae" unicode="&#xe6;" horiz-adv-x="895" 
d="M76 425q6 31 19 55.5t37.5 41t62 25t92.5 8.5q66 0 105.5 -17.5t60.5 -52.5q55 70 170 70q209 0 209 -239v-60h-344v-42q0 -146 138 -146q52 0 80 22.5t33 54.5h85q-6 -35 -20 -63t-38 -48.5t-58.5 -31.5t-81.5 -11q-96 0 -148 40q-19 -9 -38.5 -16.5t-46.5 -12.5t-66 -8
t-96 -3q-168 0 -168 165v23q0 159 168 159q69 0 108 -5.5t59 -10.5v56q0 51 -25.5 75.5t-85.5 24.5q-57 0 -87.5 -9.5t-36.5 -43.5h-87zM154 142q0 -74 77 -74q41 0 68.5 1.5t46 4.5t30.5 7t22 9v155q-23 6 -63 11t-104 5q-77 0 -77 -68v-51zM741 332q0 44 -8 72.5t-23.5 45
t-38 22.5t-50.5 6q-133 0 -133 -146h253z" />
    <glyph glyph-name="ccedilla" unicode="&#xe7;" horiz-adv-x="560" 
d="M151 214q0 -146 138 -146q52 0 83.5 22.5t37.5 64.5h85q-10 -72 -51 -113t-116 -49q-9 -52 -30.5 -98.5t-53.5 -91.5l-44 28q17 40 28 80.5t15 82.5q-183 21 -183 234v90q0 237 226 237q49 0 86.5 -9t64 -29.5t41.5 -53.5t19 -82h-84q-1 51 -35.5 74t-91.5 23
q-135 0 -135 -146v-118z" />
    <glyph glyph-name="egrave" unicode="&#xe8;" horiz-adv-x="555" 
d="M60 318q0 120 60 178.5t166 58.5q209 0 209 -239v-60h-344v-42q0 -146 138 -146q52 0 80 22.5t33 54.5h85q-6 -35 -20 -63t-38 -48.5t-58.5 -31.5t-81.5 -11q-229 0 -229 237v90zM404 332q0 44 -8 72.5t-23.5 45t-38 22.5t-50.5 6q-133 0 -133 -146h253zM366 646l-35 -48
l-183 117l53 65z" />
    <glyph glyph-name="eacute" unicode="&#xe9;" horiz-adv-x="555" 
d="M60 318q0 120 60 178.5t166 58.5q209 0 209 -239v-60h-344v-42q0 -146 138 -146q52 0 80 22.5t33 54.5h85q-6 -35 -20 -63t-38 -48.5t-58.5 -31.5t-81.5 -11q-229 0 -229 237v90zM404 332q0 44 -8 72.5t-23.5 45t-38 22.5t-50.5 6q-133 0 -133 -146h253zM353 780l53 -65
l-183 -117l-35 48z" />
    <glyph glyph-name="ecircumflex" unicode="&#xea;" horiz-adv-x="555" 
d="M60 318q0 120 60 178.5t166 58.5q209 0 209 -239v-60h-344v-42q0 -146 138 -146q52 0 80 22.5t33 54.5h85q-6 -35 -20 -63t-38 -48.5t-58.5 -31.5t-81.5 -11q-229 0 -229 237v90zM404 332q0 44 -8 72.5t-23.5 45t-38 22.5t-50.5 6q-133 0 -133 -146h253zM307 776
l130 -140l-45 -42l-115 112l-115 -112l-45 42l130 140h60z" />
    <glyph glyph-name="edieresis" unicode="&#xeb;" horiz-adv-x="555" 
d="M60 318q0 120 60 178.5t166 58.5q209 0 209 -239v-60h-344v-42q0 -146 138 -146q52 0 80 22.5t33 54.5h85q-6 -35 -20 -63t-38 -48.5t-58.5 -31.5t-81.5 -11q-229 0 -229 237v90zM404 332q0 44 -8 72.5t-23.5 45t-38 22.5t-50.5 6q-133 0 -133 -146h253zM417 756v-121
h-102v121h102zM239 756v-121h-102v121h102z" />
    <glyph glyph-name="igrave" unicode="&#xec;" horiz-adv-x="251" 
d="M171 546v-546h-91v546h91zM216 646l-35 -48l-183 117l53 65z" />
    <glyph glyph-name="iacute" unicode="&#xed;" horiz-adv-x="251" 
d="M171 546v-546h-91v546h91zM203 780l53 -65l-183 -117l-35 48z" />
    <glyph glyph-name="icircumflex" unicode="&#xee;" horiz-adv-x="251" 
d="M171 546v-546h-91v546h91zM157 776l130 -140l-45 -42l-115 112l-115 -112l-45 42l130 140h60z" />
    <glyph glyph-name="idieresis" unicode="&#xef;" horiz-adv-x="251" 
d="M171 546v-546h-91v546h91zM267 756v-121h-102v121h102zM89 756v-121h-102v121h102z" />
    <glyph glyph-name="eth" unicode="&#xf0;" horiz-adv-x="584" 
d="M231 777q118 0 189 -56l61 56l43 -47l-61 -55q25 -36 38.5 -85.5t13.5 -115.5v-246q0 -237 -226 -237q-229 0 -229 237v20q0 237 226 237q39 0 78.5 -11t59.5 -35v53q0 83 -22 127l-70 -64l-43 48l71 64q-50 33 -153 33zM151 214q0 -146 138 -146q135 0 135 146v48
q0 146 -138 146q-135 0 -135 -146v-48z" />
    <glyph glyph-name="ntilde" unicode="&#xf1;" horiz-adv-x="595" 
d="M171 0h-91v507q70 26 142 37t153 11q140 0 140 -140v-415h-91v429q0 49 -49 49q-123 0 -204 -25v-453zM130 656q7 27 31 51.5t64 24.5q30 0 47 -5.5t30.5 -12t28 -12t38.5 -5.5q12 0 24 12t17 29l54 -30q-7 -27 -31 -51.5t-64 -24.5q-30 0 -47 5.5t-30.5 12t-28 12
t-38.5 5.5q-12 0 -24 -12t-17 -29z" />
    <glyph glyph-name="ograve" unicode="&#xf2;" horiz-adv-x="575" 
d="M60 318q0 237 226 237q229 0 229 -237v-90q0 -237 -226 -237q-229 0 -229 237v90zM151 214q0 -146 138 -146q135 0 135 146v118q0 146 -138 146q-135 0 -135 -146v-118zM376 646l-35 -48l-183 117l53 65z" />
    <glyph glyph-name="oacute" unicode="&#xf3;" horiz-adv-x="575" 
d="M60 318q0 237 226 237q229 0 229 -237v-90q0 -237 -226 -237q-229 0 -229 237v90zM151 214q0 -146 138 -146q135 0 135 146v118q0 146 -138 146q-135 0 -135 -146v-118zM363 780l53 -65l-183 -117l-35 48z" />
    <glyph glyph-name="ocircumflex" unicode="&#xf4;" horiz-adv-x="575" 
d="M60 318q0 237 226 237q229 0 229 -237v-90q0 -237 -226 -237q-229 0 -229 237v90zM151 214q0 -146 138 -146q135 0 135 146v118q0 146 -138 146q-135 0 -135 -146v-118zM317 776l130 -140l-45 -42l-115 112l-115 -112l-45 42l130 140h60z" />
    <glyph glyph-name="otilde" unicode="&#xf5;" horiz-adv-x="575" 
d="M60 318q0 237 226 237q229 0 229 -237v-90q0 -237 -226 -237q-229 0 -229 237v90zM151 214q0 -146 138 -146q135 0 135 146v118q0 146 -138 146q-135 0 -135 -146v-118zM120 656q7 27 31 51.5t64 24.5q30 0 47 -5.5t30.5 -12t28 -12t38.5 -5.5q12 0 24 12t17 29l54 -30
q-7 -27 -31 -51.5t-64 -24.5q-30 0 -47 5.5t-30.5 12t-28 12t-38.5 5.5q-12 0 -24 -12t-17 -29z" />
    <glyph glyph-name="odieresis" unicode="&#xf6;" horiz-adv-x="575" 
d="M60 318q0 237 226 237q229 0 229 -237v-90q0 -237 -226 -237q-229 0 -229 237v90zM151 214q0 -146 138 -146q135 0 135 146v118q0 146 -138 146q-135 0 -135 -146v-118zM427 756v-121h-102v121h102zM249 756v-121h-102v121h102z" />
    <glyph glyph-name="divide" unicode="&#xf7;" horiz-adv-x="632" 
d="M542 414v-102h-452v102h452zM373 217v-130h-107v130h107zM373 642v-130h-107v130h107z" />
    <glyph glyph-name="oslash" unicode="&#xf8;" horiz-adv-x="575" 
d="M479 612l-43 -98q79 -58 79 -196v-90q0 -237 -226 -237q-39 0 -76 8l-31 -70h-79l43 98q-86 56 -86 201v90q0 237 226 237q51 0 85 -10l29 67h79zM151 214q0 -72 33 -108l159 364q-29 8 -57 8q-135 0 -135 -146v-118zM240 73q11 -2 23 -3.5t26 -1.5q135 0 135 146v118
q0 63 -28 100z" />
    <glyph glyph-name="ugrave" unicode="&#xf9;" horiz-adv-x="586" 
d="M173 546v-429q0 -49 49 -49q60 0 106.5 6t88.5 19v453h89v-507q-70 -26 -138 -37t-148 -11q-140 0 -140 140v415h93zM382 646l-35 -48l-183 117l53 65z" />
    <glyph glyph-name="uacute" unicode="&#xfa;" horiz-adv-x="586" 
d="M173 546v-429q0 -49 49 -49q60 0 106.5 6t88.5 19v453h89v-507q-70 -26 -138 -37t-148 -11q-140 0 -140 140v415h93zM369 780l53 -65l-183 -117l-35 48z" />
    <glyph glyph-name="ucircumflex" unicode="&#xfb;" horiz-adv-x="586" 
d="M173 546v-429q0 -49 49 -49q60 0 106.5 6t88.5 19v453h89v-507q-70 -26 -138 -37t-148 -11q-140 0 -140 140v415h93zM323 776l130 -140l-45 -42l-115 112l-115 -112l-45 42l130 140h60z" />
    <glyph glyph-name="udieresis" unicode="&#xfc;" horiz-adv-x="586" 
d="M173 546v-429q0 -49 49 -49q60 0 106.5 6t88.5 19v453h89v-507q-70 -26 -138 -37t-148 -11q-140 0 -140 140v415h93zM433 756v-121h-102v121h102zM255 756v-121h-102v121h102z" />
    <glyph glyph-name="yacute" unicode="&#xfd;" horiz-adv-x="590" 
d="M171 546v-429q0 -49 49 -49q60 0 99 3.5t73 14.5q17 52 26.5 106.5t9.5 114.5v239h90v-236q0 -80 -16 -154.5t-42.5 -142t-61 -126t-71.5 -106.5h-102q40 48 78 105t61 114q-17 -4 -53.5 -6.5t-90.5 -2.5q-140 0 -140 140v415h91zM371 780l53 -65l-183 -117l-35 48z" />
    <glyph glyph-name="thorn" unicode="&#xfe;" horiz-adv-x="570" 
d="M171 787v-252q80 20 194 20q145 0 145 -140v-205q0 -219 -209 -219q-87 0 -130 22v-232h-91v976zM171 97q61 -29 130 -29q118 0 118 128v233q0 49 -54 49q-112 0 -194 -27v-354z" />
    <glyph glyph-name="ydieresis" unicode="&#xff;" horiz-adv-x="590" 
d="M171 546v-429q0 -49 49 -49q60 0 99 3.5t73 14.5q17 52 26.5 106.5t9.5 114.5v239h90v-236q0 -80 -16 -154.5t-42.5 -142t-61 -126t-71.5 -106.5h-102q40 48 78 105t61 114q-17 -4 -53.5 -6.5t-90.5 -2.5q-140 0 -140 140v415h91zM435 756v-121h-102v121h102zM257 756
v-121h-102v121h102z" />
    <glyph glyph-name="dotlessi" unicode="&#x131;" horiz-adv-x="251" 
d="M171 546v-546h-91v546h91z" />
    <glyph glyph-name="Lslash" unicode="&#x141;" horiz-adv-x="515" 
d="M186 739v-338l105 62l39 -61l-144 -86v-235h283v-81h-379v739h96z" />
    <glyph glyph-name="lslash" unicode="&#x142;" horiz-adv-x="250" 
d="M170 787v-316l44 25l36 -62l-80 -47v-387h-90v334l-44 -25l-37 63l81 47v338z" />
    <glyph glyph-name="OE" unicode="&#x152;" horiz-adv-x="925" 
d="M862 739v-81h-281v-225h256v-81h-256v-271h281v-81h-373v57q-20 -35 -65.5 -52.5t-123.5 -17.5q-106 0 -165.5 59t-59.5 180v288q0 121 59.5 180t165.5 59q78 0 124.5 -19.5t64.5 -48.5v54h373zM171 216q0 -148 157 -148t157 148v308q0 148 -157 148t-157 -148v-308z" />
    <glyph glyph-name="oe" unicode="&#x153;" horiz-adv-x="919" 
d="M60 318q0 237 226 237q128 0 185 -75q29 38 74 56.5t105 18.5q209 0 209 -239v-60h-344v-42q0 -146 138 -146q52 0 80 22.5t33 54.5h85q-6 -35 -20 -63t-38 -48.5t-58.5 -31.5t-81.5 -11q-128 0 -183 72q-56 -72 -181 -72q-229 0 -229 237v90zM151 214q0 -146 138 -146
q135 0 135 146v118q0 146 -138 146q-135 0 -135 -146v-118zM768 332q0 44 -8 72.5t-23.5 45t-38 22.5t-50.5 6q-133 0 -133 -146h253z" />
    <glyph glyph-name="Scaron" unicode="&#x160;" horiz-adv-x="654" 
d="M399 414q35 -12 68.5 -27.5t59.5 -39.5t42 -58.5t16 -84.5q0 -47 -16.5 -86.5t-50 -68.5t-84.5 -45.5t-119 -16.5q-112 0 -172 53t-72 153h96q9 -60 44.5 -92.5t102.5 -32.5q46 0 80.5 10.5t57 28t33.5 40.5t11 49q0 36 -10.5 58.5t-28 37.5t-40.5 24t-48 17l-106 35
q-36 12 -67 29t-54 42t-36.5 57t-13.5 74q0 91 60.5 137t172.5 46q125 0 182 -48.5t60 -151.5h-92q-1 33 -12 55.5t-30.5 36.5t-46.5 20.5t-59 6.5q-75 0 -110.5 -26t-35.5 -74q0 -29 9.5 -49t24.5 -33.5t33 -21.5t35 -14zM212 973l115 -112l115 112l45 -42l-130 -140h-60
l-130 140z" />
    <glyph glyph-name="scaron" unicode="&#x161;" horiz-adv-x="537" 
d="M142 153q4 -42 32.5 -66t86.5 -24q34 0 58 7t39 18.5t22 26.5t7 31q0 23 -7 37.5t-19 24.5t-28.5 16t-35.5 12l-83 25q-30 9 -56 22t-45.5 31.5t-31 42.5t-11.5 56q0 72 53 107t149 35q106 0 150.5 -38t44.5 -122h-86q0 47 -31 65.5t-78 18.5q-108 0 -108 -63
q0 -20 7 -33t17.5 -21.5t24 -13l25.5 -8.5l91 -28q29 -9 56.5 -20.5t48.5 -29.5t34 -43.5t13 -62.5q0 -36 -12.5 -67t-39.5 -53.5t-69.5 -35.5t-101.5 -13q-103 0 -152.5 40.5t-55.5 125.5h92zM153 780l115 -112l115 112l45 -42l-130 -140h-60l-130 140z" />
    <glyph glyph-name="Ydieresis" unicode="&#x178;" horiz-adv-x="629" 
d="M143 739v-79q0 -31 15 -56l158 -274l159 274q15 25 15 56v79h93v-74q0 -40 -35 -102l-186 -321v-242h-96v242l-191 321q-28 46 -28 102v74h96zM454 949v-121h-102v121h102zM276 949v-121h-102v121h102z" />
    <glyph glyph-name="Zcaron" unicode="&#x17d;" horiz-adv-x="587" 
d="M528 739v-70l-365 -593q33 3 67 4t69 1h244v-81h-493v74l362 588q-22 -2 -45.5 -3t-49.5 -1h-254v81h465zM178 973l115 -112l115 112l45 -42l-130 -140h-60l-130 140z" />
    <glyph glyph-name="zcaron" unicode="&#x17e;" horiz-adv-x="541" 
d="M475 546v-62l-304 -402q39 2 72.5 3.5t61.5 1.5h183v-87h-436v67l307 408q-31 -2 -63 -3.5t-65 -1.5h-173v76h417zM155 780l115 -112l115 112l45 -42l-130 -140h-60l-130 140z" />
    <glyph glyph-name="circumflex" unicode="&#x2c6;" horiz-adv-x="500" 
d="M280 776l130 -140l-45 -42l-115 112l-115 -112l-45 42l130 140h60z" />
    <glyph glyph-name="caron" unicode="&#x2c7;" horiz-adv-x="500" 
d="M135 780l115 -112l115 112l45 -42l-130 -140h-60l-130 140z" />
    <glyph glyph-name="ring" unicode="&#x2da;" horiz-adv-x="420" 
d="M90 656q0 55 27.5 87.5t92.5 32.5t92.5 -32.5t27.5 -87.5t-27.5 -87.5t-92.5 -32.5t-92.5 32.5t-27.5 87.5zM141 656q0 -32 15.5 -50.5t53.5 -18.5t53.5 18.5t15.5 50.5t-15.5 50.5t-53.5 18.5t-53.5 -18.5t-15.5 -50.5z" />
    <glyph glyph-name="tilde" unicode="&#x2dc;" horiz-adv-x="514" 
d="M90 656q7 27 31 51.5t64 24.5q30 0 47 -5.5t30.5 -12t28 -12t38.5 -5.5q12 0 24 12t17 29l54 -30q-7 -27 -31 -51.5t-64 -24.5q-30 0 -47 5.5t-30.5 12t-28 12t-38.5 5.5q-12 0 -24 -12t-17 -29z" />
    <glyph glyph-name="endash" unicode="&#x2013;" horiz-adv-x="582" 
d="M570 336v-89h-561v89h561z" />
    <glyph glyph-name="emdash" unicode="&#x2014;" horiz-adv-x="1033" 
d="M1018 336v-89h-1001v89h1001z" />
    <glyph glyph-name="quoteleft" unicode="&#x2018;" horiz-adv-x="166" 
d="M123 753l16 -254l-64 -17l-48 271h96z" />
    <glyph glyph-name="quoteright" unicode="&#x2019;" horiz-adv-x="166" 
d="M139 753l-48 -271l-64 17l15 254h97z" />
    <glyph glyph-name="quotesinglbase" unicode="&#x201a;" horiz-adv-x="166" 
d="M139 130l-47 -271l-65 17l15 254h97z" />
    <glyph glyph-name="quotedblleft" unicode="&#x201c;" horiz-adv-x="322" 
d="M280 753l15 -254l-65 -17l-46 271h96zM123 753l16 -254l-64 -17l-48 271h96z" />
    <glyph glyph-name="quotedblright" unicode="&#x201d;" horiz-adv-x="322" 
d="M139 753l-47 -271l-65 17l15 254h97zM295 753l-48 -271l-63 17l15 254h96z" />
    <glyph glyph-name="quotedblbase" unicode="&#x201e;" horiz-adv-x="322" 
d="M139 130l-47 -271l-65 17l15 254h97zM295 130l-48 -271l-63 17l15 254h96z" />
    <glyph glyph-name="dagger" unicode="&#x2020;" horiz-adv-x="566" 
d="M241 617v115h91v-115h177v-79h-177v-538h-91v538h-184v79h184z" />
    <glyph glyph-name="daggerdbl" unicode="&#x2021;" horiz-adv-x="567" 
d="M241 617v115h90v-115h179v-79h-179v-343h179v-80h-179v-115h-90v115h-184v80h184v343h-184v79h184z" />
    <glyph glyph-name="bullet" unicode="&#x2022;" horiz-adv-x="433" 
d="M63 352q0 32 11.5 58.5t32 45.5t48.5 29.5t62 10.5q31 0 59 -10.5t49 -30t33 -46t12 -57.5q0 -30 -12 -56.5t-33 -45.5t-49 -30t-59 -11q-33 0 -61.5 11t-49 30t-32 45.5t-11.5 56.5z" />
    <glyph glyph-name="ellipsis" unicode="&#x2026;" horiz-adv-x="878" 
d="M198 130v-130h-108v130h108zM493 130v-130h-107v130h107zM788 130v-130h-107v130h107z" />
    <glyph glyph-name="perthousand" unicode="&#x2030;" horiz-adv-x="1050" 
d="M707 206q0 133 125 133q128 0 128 -133v-82q0 -133 -126 -133q-127 0 -127 133v82zM781 120q0 -59 53 -59q52 0 52 59v91q0 58 -54 58q-51 0 -51 -58v-91zM90 620q0 133 125 133q128 0 128 -133v-82q0 -133 -126 -133q-127 0 -127 133v82zM164 534q0 -59 53 -59
q52 0 52 59v91q0 58 -54 58q-51 0 -51 -58v-91zM585 739l-339 -739h-86l338 739h87zM407 206q0 133 125 133q128 0 128 -133v-82q0 -133 -126 -133q-127 0 -127 133v82zM481 120q0 -59 53 -59q52 0 52 59v91q0 58 -54 58q-51 0 -51 -58v-91z" />
    <glyph glyph-name="guilsinglleft" unicode="&#x2039;" horiz-adv-x="386" 
d="M296 464l-122 -159l122 -158l-53 -51l-153 209l153 209z" />
    <glyph glyph-name="guilsinglright" unicode="&#x203a;" horiz-adv-x="386" 
d="M143 514l153 -209l-153 -209l-53 51l122 158l-122 159z" />
    <glyph glyph-name="fraction" unicode="&#x2044;" horiz-adv-x="231" 
d="M414 739l-516 -739h-73l515 739h74z" />
    <glyph glyph-name="Euro" unicode="&#x20ac;" horiz-adv-x="605" 
d="M557 739l-36 -81h-178q-167 0 -167 -148v-94h273l-36 -82h-237v-118q0 -148 167 -148q67 0 111 14.5t73 39.5l25 -83q-29 -23 -78.5 -37.5t-130.5 -14.5q-263 0 -263 239v108h-58l31 82h27v84q0 239 263 239h214z" />
    <glyph glyph-name="uni2117" unicode="&#x2117;" horiz-adv-x="834" 
d="M421 753q338 0 338 -384q0 -196 -84 -289t-254 -93q-168 0 -257 94.5t-89 287.5q0 196 87 290t259 94zM421 695q-57 0 -107 -15.5t-86.5 -52.5t-58 -99.5t-21.5 -156.5q0 -96 21.5 -159t58 -100.5t86.5 -53t107 -15.5t106 16t84 54t55 101t20 157q0 93 -20 155t-55 99.5
t-84 53.5t-106 16zM461 580q115 0 115 -139q0 -136 -115 -136h-99v-152h-69v427h168zM362 366h106q45 0 45 75q0 79 -45 79h-106v-154z" />
    <glyph glyph-name="trademark" unicode="&#x2122;" horiz-adv-x="1023" 
d="M370 739v-72h-121v-414h-81v414h-124v72h326zM545 739l120 -300l34 -93l35 93l119 300h80v-486h-79v194l4 111l-120 -305h-70l-127 307l4 -113v-194h-80v486h80z" />
    <glyph glyph-name="minus" unicode="&#x2212;" horiz-adv-x="632" 
d="M542 414v-102h-452v102h452z" />
    <glyph glyph-name="NULL" horiz-adv-x="532" 
 />
    </font>
</defs>
</svg>
